  0
SECTION
  2
HEADER
  9
$ACADVER
  1
AC1015
  9
$ACADMAINTVER
 70
     6
  9
$DWGCODEPAGE
  3
ANSI_1252
  9
$INSBASE
 10
0.0
 20
0.0
 30
0.0
  9
$EXTMIN
 10
0.0
 20
0.0
 30
0.0
  9
$EXTMAX
 10
420.0
 20
297.0
 30
0.0
  9
$LIMMIN
 10
0.0
 20
0.0
  9
$LIMMAX
 10
420.0
 20
297.0
  9
$ORTHOMODE
 70
     0
  9
$REGENMODE
 70
     1
  9
$FILLMODE
 70
     1
  9
$QTEXTMODE
 70
     0
  9
$MIRRTEXT
 70
     1
  9
$LTSCALE
 40
1.0
  9
$ATTMODE
 70
     1
  9
$TEXTSIZE
 40
3.5
  9
$TRACEWID
 40
1.0
  9
$TEXTSTYLE
  7
Standard
  9
$CLAYER
  8
0
  9
$CELTYPE
  6
ByLayer
  9
$CECOLOR
 62
   256
  9
$CELTSCALE
 40
1.0
  9
$DISPSILH
 70
     0
  9
$DIMSCALE
 40
1.0
  9
$DIMASZ
 40
3.5
  9
$DIMEXO
 40
0.1
  9
$DIMDLI
 40
3.75
  9
$DIMRND
 40
0.0
  9
$DIMDLE
 40
0.0
  9
$DIMEXE
 40
1.0
  9
$DIMTP
 40
0.0
  9
$DIMTM
 40
0.0
  9
$DIMTXT
 40
3.5
  9
$DIMCEN
 40
2.5
  9
$DIMTSZ
 40
0.0
  9
$DIMTOL
 70
     0
  9
$DIMLIM
 70
     0
  9
$DIMTIH
 70
     1
  9
$DIMTOH
 70
     1
  9
$DIMSE1
 70
     0
  9
$DIMSE2
 70
     0
  9
$DIMTAD
 70
     1
  9
$DIMZIN
 70
     0
  9
$DIMBLK
  1

  9
$DIMASO
 70
     1
  9
$DIMSHO
 70
     1
  9
$DIMPOST
  1

  9
$DIMAPOST
  1

  9
$DIMALT
 70
     0
  9
$DIMALTD
 70
     3
  9
$DIMALTF
 40
0.0393700787
  9
$DIMLFAC
 40
1.0
  9
$DIMTOFL
 70
     1
  9
$DIMTVP
 40
0.0
  9
$DIMTIX
 70
     0
  9
$DIMSOXD
 70
     0
  9
$DIMSAH
 70
     0
  9
$DIMBLK1
  1

  9
$DIMBLK2
  1

  9
$DIMSTYLE
  2
ISO-25
  9
$DIMCLRD
 70
     0
  9
$DIMCLRE
 70
     0
  9
$DIMCLRT
 70
     0
  9
$DIMTFAC
 40
1.0
  9
$DIMGAP
 40
2.0
  9
$DIMJUST
 70
     0
  9
$DIMSD1
 70
     0
  9
$DIMSD2
 70
     0
  9
$DIMTOLJ
 70
     0
  9
$DIMTZIN
 70
     0
  9
$DIMALTZ
 70
     0
  9
$DIMALTTZ
 70
     0
  9
$DIMUPT
 70
     0
  9
$DIMDEC
 70
     2
  9
$DIMTDEC
 70
     3
  9
$DIMALTU
 70
     2
  9
$DIMALTTD
 70
     3
  9
$DIMTXSTY
  7
Standard
  9
$DIMAUNIT
 70
     0
  9
$DIMADEC
 70
     2
  9
$DIMALTRND
 40
0.0
  9
$DIMAZIN
 70
     0
  9
$DIMDSEP
 70
    44
  9
$DIMATFIT
 70
     3
  9
$DIMFRAC
 70
     0
  9
$DIMLDRBLK
  1

  9
$DIMLUNIT
 70
     2
  9
$DIMLWD
 70
    -2
  9
$DIMLWE
 70
    -2
  9
$DIMTMOVE
 70
     0
  9
$LUNITS
 70
     2
  9
$LUPREC
 70
     2
  9
$SKETCHINC
 40
1.0
  9
$FILLETRAD
 40
10.0
  9
$AUNITS
 70
     0
  9
$AUPREC
 70
     2
  9
$MENU
  1
.
  9
$ELEVATION
 40
0.0
  9
$PELEVATION
 40
0.0
  9
$THICKNESS
 40
0.0
  9
$LIMCHECK
 70
     0
  9
$CHAMFERA
 40
0.0
  9
$CHAMFERB
 40
0.0
  9
$CHAMFERC
 40
0.0
  9
$CHAMFERD
 40
0.0
  9
$SKPOLY
 70
     0
  9
$TDCREATE
 40
2460209.637597303
  9
$TDUCREATE
 40
2460209.55426397
  9
$TDUPDATE
 40
2460209.637605255
  9
$TDUUPDATE
 40
2460209.554271922
  9
$TDINDWG
 40
0.0000000116
  9
$TDUSRTIMER
 40
0.0000000116
  9
$USRTIMER
 70
     1
  9
$ANGBASE
 50
0.0
  9
$ANGDIR
 70
     0
  9
$PDMODE
 70
     0
  9
$PDSIZE
 40
-1.0
  9
$PLINEWID
 40
0.0
  9
$SPLFRAME
 70
     0
  9
$SPLINETYPE
 70
     6
  9
$SPLINESEGS
 70
     8
  9
$HANDSEED
  5
3A6
  9
$SURFTAB1
 70
     6
  9
$SURFTAB2
 70
     6
  9
$SURFTYPE
 70
     6
  9
$SURFU
 70
     6
  9
$SURFV
 70
     6
  9
$UCSBASE
  2

  9
$UCSNAME
  2

  9
$UCSORG
 10
0.0
 20
0.0
 30
0.0
  9
$UCSXDIR
 10
1.0
 20
0.0
 30
0.0
  9
$UCSYDIR
 10
0.0
 20
1.0
 30
0.0
  9
$UCSORTHOREF
  2

  9
$UCSORTHOVIEW
 70
     0
  9
$UCSORGTOP
 10
0.0
 20
0.0
 30
0.0
  9
$UCSORGBOTTOM
 10
0.0
 20
0.0
 30
0.0
  9
$UCSORGLEFT
 10
0.0
 20
0.0
 30
0.0
  9
$UCSORGRIGHT
 10
0.0
 20
0.0
 30
0.0
  9
$UCSORGFRONT
 10
0.0
 20
0.0
 30
0.0
  9
$UCSORGBACK
 10
0.0
 20
0.0
 30
0.0
  9
$PUCSBASE
  2

  9
$PUCSNAME
  2

  9
$PUCSORG
 10
0.0
 20
0.0
 30
0.0
  9
$PUCSXDIR
 10
1.0
 20
0.0
 30
0.0
  9
$PUCSYDIR
 10
0.0
 20
1.0
 30
0.0
  9
$PUCSORTHOREF
  2

  9
$PUCSORTHOVIEW
 70
     0
  9
$PUCSORGTOP
 10
0.0
 20
0.0
 30
0.0
  9
$PUCSORGBOTTOM
 10
0.0
 20
0.0
 30
0.0
  9
$PUCSORGLEFT
 10
0.0
 20
0.0
 30
0.0
  9
$PUCSORGRIGHT
 10
0.0
 20
0.0
 30
0.0
  9
$PUCSORGFRONT
 10
0.0
 20
0.0
 30
0.0
  9
$PUCSORGBACK
 10
0.0
 20
0.0
 30
0.0
  9
$USERI1
 70
     0
  9
$USERI2
 70
     0
  9
$USERI3
 70
     0
  9
$USERI4
 70
     0
  9
$USERI5
 70
     0
  9
$USERR1
 40
0.0
  9
$USERR2
 40
0.0
  9
$USERR3
 40
0.0
  9
$USERR4
 40
0.0
  9
$USERR5
 40
0.0
  9
$WORLDVIEW
 70
     1
  9
$SHADEDGE
 70
     3
  9
$SHADEDIF
 70
    70
  9
$TILEMODE
 70
     1
  9
$MAXACTVP
 70
    64
  9
$PINSBASE
 10
0.0
 20
0.0
 30
0.0
  9
$PLIMCHECK
 70
     0
  9
$PEXTMIN
 10
1.0000000000E+20
 20
1.0000000000E+20
 30
1.0000000000E+20
  9
$PEXTMAX
 10
-1.0000000000E+20
 20
-1.0000000000E+20
 30
-1.0000000000E+20
  9
$PLIMMIN
 10
0.0
 20
0.0
  9
$PLIMMAX
 10
420.0
 20
297.0
  9
$UNITMODE
 70
     0
  9
$VISRETAIN
 70
     1
  9
$PLINEGEN
 70
     0
  9
$PSLTSCALE
 70
     1
  9
$TREEDEPTH
 70
  3020
  9
$CMLSTYLE
  2
Standard
  9
$CMLJUST
 70
     0
  9
$CMLSCALE
 40
20.0
  9
$PROXYGRAPHICS
 70
     1
  9
$MEASUREMENT
 70
     1
  9
$CELWEIGHT
370
    -1
  9
$ENDCAPS
280
     0
  9
$JOINSTYLE
280
     0
  9
$LWDISPLAY
290
     1
  9
$INSUNITS
 70
     4
  9
$HYPERLINKBASE
  1

  9
$STYLESHEET
  1

  9
$XEDIT
290
     1
  9
$CEPSNTYPE
380
     0
  9
$PSTYLEMODE
290
     1
  9
$FINGERPRINTGUID
  2
{528cc335-d07d-4bf9-99f7-1d4e7b1a2be7}
  9
$VERSIONGUID
  2
{FAEB1C32-E019-11D5-929B-00C0DF256EC4}
  9
$EXTNAMES
290
     1
  9
$PSVPSCALE
 40
0.0
  9
$OLESTARTUP
290
     0
  0
ENDSEC
  0
SECTION
  2
CLASSES
  0
CLASS
  1
ACDBDICTIONARYWDFLT
  2
AcDbDictionaryWithDefault
  3
ObjectDBX Classes
 90
        0
280
     0
281
     0
  0
CLASS
  1
VISUALSTYLE
  2
AcDbVisualStyle
  3
ObjectDBX Classes
 90
     4095
280
     0
281
     0
  0
CLASS
  1
MATERIAL
  2
AcDbMaterial
  3
ObjectDBX Classes
 90
     1153
280
     0
281
     0
  0
CLASS
  1
SCALE
  2
AcDbScale
  3
ObjectDBX Classes
 90
     1153
280
     0
281
     0
  0
CLASS
  1
TABLESTYLE
  2
AcDbTableStyle
  3
ObjectDBX Classes
 90
     4095
280
     0
281
     0
  0
CLASS
  1
MLEADERSTYLE
  2
AcDbMLeaderStyle
  3
ACDB_MLEADERSTYLE_CLASS
 90
     4095
280
     0
281
     0
  0
CLASS
  1
SUN
  2
AcDbSun
  3
SCENEOE
 90
     1153
280
     0
281
     0
  0
CLASS
  1
ACDBPLACEHOLDER
  2
AcDbPlaceHolder
  3
ObjectDBX Classes
 90
        0
280
     0
281
     0
  0
CLASS
  1
LAYOUT
  2
AcDbLayout
  3
ObjectDBX Classes
 90
        0
280
     0
281
     0
  0
ENDSEC
  0
SECTION
  2
TABLES
  0
TABLE
  2
VPORT
  5
8
330
0
100
AcDbSymbolTable
 70
     1
  0
VPORT
  5
29
330
8
100
AcDbSymbolTableRecord
100
AcDbViewportTableRecord
  2
*Active
 70
     0
 10
0.0
 20
0.0
 11
1.0
 21
1.0
 12
210.0
 22
148.5
 13
0.0
 23
0.0
 14
10.0
 24
10.0
 15
10.0
 25
10.0
 16
0.0
 26
0.0
 36
1.0
 17
0.0
 27
0.0
 37
0.0
 40
297.0
 41
1.4141414141
 42
50.0
 43
0.0
 44
0.0
 50
0.0
 51
0.0
 71
     0
 72
  2000
 73
     1
 74
     3
 75
     0
 76
     0
 77
     0
 78
     0
281
     0
 65
     1
110
0.0
120
0.0
130
0.0
111
1.0
121
0.0
131
0.0
112
0.0
122
1.0
132
0.0
 79
     0
146
0.0
  0
ENDTAB
  0
TABLE
  2
LTYPE
  5
5
330
0
100
AcDbSymbolTable
 70
     6
  0
LTYPE
  5
14
330
5
100
AcDbSymbolTableRecord
100
AcDbLinetypeTableRecord
  2
ByBlock
 70
     0
  3

 72
    65
 73
     0
 40
0.0
  0
LTYPE
  5
15
330
5
100
AcDbSymbolTableRecord
100
AcDbLinetypeTableRecord
  2
ByLayer
 70
     0
  3

 72
    65
 73
     0
 40
0.0
  0
LTYPE
  5
16
330
5
100
AcDbSymbolTableRecord
100
AcDbLinetypeTableRecord
  2
Continuous
 70
     0
  3
Solid line
 72
    65
 73
     0
 40
0.0
  0
LTYPE
  5
6E
330
5
100
AcDbSymbolTableRecord
100
AcDbLinetypeTableRecord
  2
HIDDEN
 70
     0
  3
Hidden __ __ __ __ __ __ __ __ __ __ __ __ __ __
 72
    65
 73
     2
 40
1.905
 49
1.27
 74
     0
 49
-0.635
 74
     0
  0
LTYPE
  5
6F
330
5
100
AcDbSymbolTableRecord
100
AcDbLinetypeTableRecord
  2
PHANTOM
 70
     0
  3
Phantom ______  __  __  ______  __  __  ______
 72
    65
 73
     6
 40
12.7
 49
6.35
 74
     0
 49
-1.27
 74
     0
 49
1.27
 74
     0
 49
-1.27
 74
     0
 49
1.27
 74
     0
 49
-1.27
 74
     0
  0
LTYPE
  5
70
330
5
100
AcDbSymbolTableRecord
100
AcDbLinetypeTableRecord
  2
CENTER
 70
     0
  3
Center ____ _ ____ _ ____ _ ____ _ ____ _ ____
 72
    65
 73
     4
 40
10.16
 49
6.35
 74
     0
 49
-1.27
 74
     0
 49
1.27
 74
     0
 49
-1.27
 74
     0
  0
LTYPE
  5
71
330
5
100
AcDbSymbolTableRecord
100
AcDbLinetypeTableRecord
  2
CENTERX2
 70
     0
  3
Center (2x) ________  __  ________  __  _____
 72
    65
 73
     4
 40
20.32
 49
12.7
 74
     0
 49
-2.54
 74
     0
 49
2.54
 74
     0
 49
-2.54
 74
     0
  0
LTYPE
  5
72
330
5
100
AcDbSymbolTableRecord
100
AcDbLinetypeTableRecord
  2
DOT2
 70
     0
  3
Dot (.5x) ........................................
 72
    65
 73
     2
 40
0.635
 49
0.0
 74
     0
 49
-0.635
 74
     0
  0
ENDTAB
  0
TABLE
  2
LAYER
  5
2
330
0
100
AcDbSymbolTable
 70
     9
  0
LAYER
  5
10
330
2
100
AcDbSymbolTableRecord
100
AcDbLayerTableRecord
  2
0
 70
     0
 62
     7
  6
Continuous
370
    -3
390
F
  0
LAYER
  5
73
330
2
100
AcDbSymbolTableRecord
100
AcDbLayerTableRecord
  2
VORLAGE_TEXT
 70
     0
 62
     7
  6
Continuous
370
    -3
390
F
  0
LAYER
  5
74
330
2
100
AcDbSymbolTableRecord
100
AcDbLayerTableRecord
  2
VORLAGE_BEMASSUNG
 70
     0
 62
    -5
  6
Continuous
290
     0
370
    -3
390
F
  0
LAYER
  5
75
330
2
100
AcDbSymbolTableRecord
100
AcDbLayerTableRecord
  2
TEXT
 70
     0
 62
     7
  6
Continuous
370
    -3
390
F
  0
LAYER
  5
76
330
2
100
AcDbSymbolTableRecord
100
AcDbLayerTableRecord
  2
LINIEN-DICK
 70
     0
 62
     7
  6
Continuous
370
    35
390
F
  0
LAYER
  5
77
330
2
100
AcDbSymbolTableRecord
100
AcDbLayerTableRecord
  2
LINIEN-NORMAL
 70
     0
 62
     7
  6
Continuous
370
    25
390
F
  0
LAYER
  5
78
330
2
100
AcDbSymbolTableRecord
100
AcDbLayerTableRecord
  2
LINIEN-DÜNN
 70
     0
 62
     7
  6
Continuous
370
    -3
390
F
  0
LAYER
  5
79
330
2
100
AcDbSymbolTableRecord
100
AcDbLayerTableRecord
  2
TEXT-DEUTSCH
 70
     0
 62
     7
  6
Continuous
370
    -3
390
F
  0
LAYER
  5
7A
330
2
100
AcDbSymbolTableRecord
100
AcDbLayerTableRecord
  2
TEXT-ENGLISCH
 70
     0
 62
    -7
  6
Continuous
290
     0
370
    -3
390
F
  0
ENDTAB
  0
TABLE
  2
STYLE
  5
3
330
0
100
AcDbSymbolTable
 70
     3
  0
STYLE
  5
11
330
3
100
AcDbSymbolTableRecord
100
AcDbTextStyleTableRecord
  2
Standard
 70
     0
 40
0.0
 41
1.0
 50
0.0
 71
     0
 42
3.5
  3
txt
  4

  0
STYLE
  5
F1
330
3
100
AcDbSymbolTableRecord
100
AcDbTextStyleTableRecord
  2
SLDTEXTSTYLE0
 70
     0
 40
0.0
 41
0.605
 50
0.0
 71
     0
 42
3.5
  3
TXT
  4

  0
STYLE
  5
19A
330
3
100
AcDbSymbolTableRecord
100
AcDbTextStyleTableRecord
  2
SLDTEXTSTYLE1
 70
     0
 40
0.0
 41
0.563
 50
0.0
 71
     0
 42
3.5
  3
TXT
  4

  0
ENDTAB
  0
TABLE
  2
VIEW
  5
6
330
0
100
AcDbSymbolTable
 70
     0
  0
ENDTAB
  0
TABLE
  2
UCS
  5
7
330
0
100
AcDbSymbolTable
 70
     0
  0
ENDTAB
  0
TABLE
  2
APPID
  5
9
330
0
100
AcDbSymbolTable
 70
     1
  0
APPID
  5
12
330
9
100
AcDbSymbolTableRecord
100
AcDbRegAppTableRecord
  2
ACAD
 70
     0
  0
ENDTAB
  0
TABLE
  2
DIMSTYLE
  5
A
330
0
100
AcDbSymbolTable
 70
     4
100
AcDbDimStyleTable
  0
DIMSTYLE
105
27
330
A
100
AcDbSymbolTableRecord
100
AcDbDimStyleTableRecord
  2
ISO-25
 70
     0
 41
2.5
 42
0.625
 43
3.75
 44
1.25
 73
     0
 74
     0
 77
     1
 78
     8
140
2.5
141
2.5
143
0.0393700787
147
0.625
171
     3
172
     1
178
     0
271
     2
272
     2
274
     3
278
    44
283
     0
284
     8
340
11
  0
DIMSTYLE
105
351
102
{ACAD_REACTORS
330
350
330
35C
102
}
330
A
100
AcDbSymbolTableRecord
100
AcDbDimStyleTableRecord
  2
SLDDIMSTYLE0
 70
     0
 41
3.5
 44
0.0
 45
0.000000001
 73
     0
 74
     0
 77
     1
 78
    12
 79
     3
140
3.5
147
0.875
173
     1
178
     0
271
     2
272
     3
276
     2
284
    12
340
F1
  0
DIMSTYLE
105
368
102
{ACAD_REACTORS
330
367
102
}
330
A
100
AcDbSymbolTableRecord
100
AcDbDimStyleTableRecord
  2
SLDDIMSTYLE1
 70
     0
 41
3.5
 44
0.0
 45
0.000000001
 73
     0
 74
     0
 77
     1
 78
    12
 79
     3
140
3.5
147
0.875
173
     1
178
     0
271
     1
272
     3
276
     2
284
    12
340
F1
  0
DIMSTYLE
105
373
102
{ACAD_REACTORS
330
372
102
}
330
A
100
AcDbSymbolTableRecord
100
AcDbDimStyleTableRecord
  2
SLDDIMSTYLE2
 70
     0
 41
3.5
 44
0.0
 73
     0
 74
     0
 77
     1
 78
    12
 79
     3
140
3.5
147
0.875
173
     1
178
     0
179
     2
272
     3
276
     2
284
    12
340
F1
  0
ENDTAB
  0
TABLE
  2
BLOCK_RECORD
  5
1
330
0
100
AcDbSymbolTable
 70
    11
  0
BLOCK_RECORD
  5
1F
330
1
100
AcDbSymbolTableRecord
100
AcDbBlockTableRecord
  2
*Model_Space
340
22
  0
BLOCK_RECORD
  5
1B
330
1
100
AcDbSymbolTableRecord
100
AcDbBlockTableRecord
  2
*Paper_Space
340
1E
  0
BLOCK_RECORD
  5
23
330
1
100
AcDbSymbolTableRecord
100
AcDbBlockTableRecord
  2
*Paper_Space0
340
26
  0
BLOCK_RECORD
  5
7B
330
1
100
AcDbSymbolTableRecord
100
AcDbBlockTableRecord
  2
ACO-Logo
340
0
102
{BLKREFS
331
151
102
}
  0
BLOCK_RECORD
  5
EE
330
1
100
AcDbSymbolTableRecord
100
AcDbBlockTableRecord
  2
SW_NOTE_0
340
0
102
{BLKREFS
331
F3
102
}
  0
BLOCK_RECORD
  5
F4
330
1
100
AcDbSymbolTableRecord
100
AcDbBlockTableRecord
  2
SW_NOTE_0_1
340
0
102
{BLKREFS
331
F8
102
}
  0
BLOCK_RECORD
  5
F9
330
1
100
AcDbSymbolTableRecord
100
AcDbBlockTableRecord
  2
SW_NOTE_0_2
340
0
102
{BLKREFS
331
100
102
}
  0
BLOCK_RECORD
  5
178
330
1
100
AcDbSymbolTableRecord
100
AcDbBlockTableRecord
  2
SW_NOTE_0_3
340
0
102
{BLKREFS
331
180
102
}
  0
BLOCK_RECORD
  5
352
330
1
100
AcDbSymbolTableRecord
100
AcDbBlockTableRecord
  2
_D
340
0
  0
BLOCK_RECORD
  5
35D
330
1
100
AcDbSymbolTableRecord
100
AcDbBlockTableRecord
  2
_D_1
340
0
  0
BLOCK_RECORD
  5
369
330
1
100
AcDbSymbolTableRecord
100
AcDbBlockTableRecord
  2
_D_2
340
0
  0
BLOCK_RECORD
  5
374
330
1
100
AcDbSymbolTableRecord
100
AcDbBlockTableRecord
  2
_D_3
340
0
  0
BLOCK_RECORD
  5
399
330
1
100
AcDbSymbolTableRecord
100
AcDbBlockTableRecord
  2
SW_CENTERMARKSYMBOL_0
340
0
102
{BLKREFS
331
3A4
102
}
  0
ENDTAB
  0
ENDSEC
  0
SECTION
  2
BLOCKS
  0
BLOCK
  5
20
330
1F
100
AcDbEntity
  8
0
100
AcDbBlockBegin
  2
*Model_Space
 70
     0
 10
0.0
 20
0.0
 30
0.0
  3
*Model_Space
  1

  0
ENDBLK
  5
21
330
1F
100
AcDbEntity
  8
0
100
AcDbBlockEnd
  0
BLOCK
  5
1C
330
1B
100
AcDbEntity
 67
     1
  8
0
100
AcDbBlockBegin
  2
*Paper_Space
 70
     0
 10
0.0
 20
0.0
 30
0.0
  3
*Paper_Space
  1

  0
ENDBLK
  5
1D
330
1B
100
AcDbEntity
 67
     1
  8
0
100
AcDbBlockEnd
  0
BLOCK
  5
24
330
23
100
AcDbEntity
  8
0
100
AcDbBlockBegin
  2
*Paper_Space0
 70
     0
 10
0.0
 20
0.0
 30
0.0
  3
*Paper_Space0
  1

  0
ENDBLK
  5
25
330
23
100
AcDbEntity
  8
0
100
AcDbBlockEnd
  0
BLOCK
  5
7C
330
7B
100
AcDbEntity
  8
0
100
AcDbBlockBegin
  2
ACO-Logo
 70
     0
 10
0.0
 20
0.0
 30
0.0
  3
ACO-Logo
  1

  0
ARC
  5
7E
330
7B
100
AcDbEntity
  8
0
  6
Continuous
 62
   179
370
    18
100
AcDbCircle
 10
80.3853261169
 20
4.9940995715
 30
0.0
 40
0.3000000000000441
100
AcDbArc
 50
181.9349323096
 51
274.6062978506
  0
ARC
  5
7F
330
7B
100
AcDbEntity
  8
0
  6
Continuous
 62
   179
370
    18
100
AcDbCircle
 10
81.2359083165
 20
2.1946665956
 30
0.0
 40
1.000000000000021
100
AcDbArc
 50
221.4087409628
 51
276.0561297228
  0
ARC
  5
80
330
7B
100
AcDbEntity
  8
0
  6
Continuous
 62
   179
370
    18
100
AcDbCircle
 10
79.1360017163
 20
3.654242048
 30
0.0
 40
0.300000000000004
100
AcDbArc
 50
181.2730300201
 51
274.4996077095
  0
ARC
  5
81
330
7B
100
AcDbEntity
  8
0
  6
Continuous
 62
   179
370
    18
100
AcDbCircle
 10
78.7699033484
 20
3.2873137407
 30
0.0
 40
0.4000000000000358
100
AcDbArc
 50
221.0090869016
 51
274.5606296317
  0
ARC
  5
82
330
7B
100
AcDbEntity
  8
0
  6
Continuous
 62
   179
370
    18
100
AcDbCircle
 10
91.2333953062
 20
4.6062442307
 30
0.0
 40
0.3000000000000493
100
AcDbArc
 50
274.4996077095
 51
3.7249371334
  0
ARC
  5
83
330
7B
100
AcDbEntity
  8
0
  6
Continuous
 62
   179
370
    18
100
AcDbCircle
 10
81.5287571045
 20
9.7648973508
 30
0.0
 40
1.00000000000002
100
AcDbArc
 50
93.1134387481
 51
181.9414863909
  0
ARC
  5
84
330
7B
100
AcDbEntity
  8
0
  6
Continuous
 62
   179
370
    18
100
AcDbCircle
 10
81.6051675115
 20
7.5107903456
 30
0.0
 40
1.0
100
AcDbArc
 50
181.9414863909
 51
274.398705355
  0
ARC
  5
85
330
7B
100
AcDbEntity
  8
0
  6
Continuous
 62
   179
370
    18
100
AcDbCircle
 10
80.1506905656
 20
11.9393118923
 30
0.0
 40
0.300000000000045
100
AcDbArc
 50
93.0418421566
 51
181.9349323096
  0
ARC
  5
86
330
7B
100
AcDbEntity
  8
0
  6
Continuous
 62
   179
370
    18
100
AcDbCircle
 10
78.1879722102
 20
12.3499352608
 30
0.0
 40
0.7999999999953393
100
AcDbArc
 50
92.6995697565
 51
148.2554209065
  0
ARC
  5
87
330
7B
100
AcDbEntity
  8
0
  6
Continuous
 62
   179
370
    18
100
AcDbCircle
 10
78.930862229
 20
12.8855189761
 30
0.0
 40
0.3000000000000031
100
AcDbArc
 50
92.6995697565
 51
181.2730300201
  0
ARC
  5
88
330
7B
100
AcDbEntity
  8
0
  6
Continuous
 62
   179
370
    18
100
AcDbCircle
 10
82.327743407
 20
9.8083568568
 30
0.0
 40
1.000000000000034
100
AcDbArc
 50
1.9414863909
 51
93.1134387481
  0
ARC
  5
89
330
7B
100
AcDbEntity
  8
0
  6
Continuous
 62
   179
370
    18
100
AcDbCircle
 10
81.5287571045
 20
9.7648973508
 30
0.0
 40
0.3625000000000009
100
AcDbArc
 50
93.1134387481
 51
181.9414863909
  0
ARC
  5
8A
330
7B
100
AcDbEntity
  8
0
  6
Continuous
 62
   179
370
    18
100
AcDbCircle
 10
82.327743407
 20
9.8083568568
 30
0.0
 40
0.3625000000000146
100
AcDbArc
 50
1.9414863909
 51
93.1134387481
  0
ARC
  5
8B
330
7B
100
AcDbEntity
  8
0
  6
Continuous
 62
   179
370
    18
100
AcDbCircle
 10
82.4035451983
 20
7.5722040138
 30
0.0
 40
1.000000000000008
100
AcDbArc
 50
274.398705355
 51
1.9414863909
  0
ARC
  5
8C
330
7B
100
AcDbEntity
  8
0
  6
Continuous
 62
   179
370
    18
100
AcDbCircle
 10
82.4035451983
 20
7.5722040138
 30
0.0
 40
0.3625000000000068
100
AcDbArc
 50
274.398705355
 51
1.9414863909
  0
ARC
  5
8D
330
7B
100
AcDbEntity
  8
0
  6
Continuous
 62
   179
370
    18
100
AcDbCircle
 10
81.6051675115
 20
7.5107903456
 30
0.0
 40
0.3625000000000111
100
AcDbArc
 50
181.9414863909
 51
274.398705355
  0
ARC
  5
8E
330
7B
100
AcDbEntity
  8
0
  6
Continuous
 62
   179
370
    18
100
AcDbCircle
 10
88.825822761
 20
8.0662148274
 30
0.0
 40
0.9999999999999997
100
AcDbArc
 50
274.398705355
 51
2.6541955134
  0
ARC
  5
8F
330
7B
100
AcDbEntity
  8
0
  6
Continuous
 62
   179
370
    18
100
AcDbCircle
 10
90.1578295581
 20
5.7814576687
 30
0.0
 40
0.3000000000000043
100
AcDbArc
 50
274.6062978507
 51
2.5147526475
  0
ARC
  5
90
330
7B
100
AcDbEntity
  8
0
  6
Continuous
 62
   179
370
    18
100
AcDbCircle
 10
88.825822761
 20
8.0662148274
 30
0.0
 40
0.3625000000000083
100
AcDbArc
 50
274.398705355
 51
2.6541955134
  0
ARC
  5
91
330
7B
100
AcDbEntity
  8
0
  6
Continuous
 62
   179
370
    18
100
AcDbCircle
 10
88.728529747
 20
10.16496413
 30
0.0
 40
1.000000000000001
100
AcDbArc
 50
2.6541955134
 51
93.1134387481
  0
ARC
  5
92
330
7B
100
AcDbEntity
  8
0
  6
Continuous
 62
   179
370
    18
100
AcDbCircle
 10
88.728529747
 20
10.16496413
 30
0.0
 40
0.3625000000000085
100
AcDbArc
 50
2.6541955134
 51
93.1134387481
  0
ARC
  5
93
330
7B
100
AcDbEntity
  8
0
  6
Continuous
 62
   179
370
    18
100
AcDbCircle
 10
89.8647121341
 20
12.455515937
 30
0.0
 40
0.2999999999999984
100
AcDbArc
 50
2.5147526475
 51
93.0418421566
  0
ARC
  5
94
330
7B
100
AcDbEntity
  8
0
  6
Continuous
 62
   179
370
    18
100
AcDbCircle
 10
90.6583795404
 20
13.4384863935
 30
0.0
 40
0.2999999999999911
100
AcDbArc
 50
3.7249371334
 51
92.6995697565
  0
CIRCLE
  5
95
330
7B
100
AcDbEntity
  8
0
  6
Continuous
 62
   179
370
    18
100
AcDbCircle
 10
15.7233972286
 20
6.4054930194
 30
0.0
 40
1.579500000000014
  0
CIRCLE
  5
96
330
7B
100
AcDbEntity
  8
0
  6
Continuous
 62
   179
370
    18
100
AcDbCircle
 10
15.7233972286
 20
6.4054930194
 30
0.0
 40
2.281499999999994
  0
ARC
  5
97
330
7B
100
AcDbEntity
  8
0
  6
Continuous
 62
   179
370
    18
100
AcDbCircle
 10
89.7681336026
 20
2.3106616691
 30
0.0
 40
0.098384530246548
100
AcDbArc
 50
332.3802627259
 51
4.9765441602
  0
ARC
  5
98
330
7B
100
AcDbEntity
  8
0
  6
Continuous
 62
   179
370
    18
100
AcDbCircle
 10
89.6886560089
 20
2.3522464185
 30
0.0
 40
0.1880839130754018
100
AcDbArc
 50
303.690067526
 51
332.3802627258
  0
ARC
  5
99
330
7B
100
AcDbEntity
  8
0
  6
Continuous
 62
   179
370
    18
100
AcDbCircle
 10
89.4849700869
 20
2.6577753016
 30
0.0
 40
0.5552839311631531
100
AcDbArc
 50
287.108652213
 51
303.690067526
  0
ARC
  5
9A
330
7B
100
AcDbEntity
  8
0
  6
Continuous
 62
   179
370
    18
100
AcDbCircle
 10
88.0513010646
 20
7.3154864882
 30
0.0
 40
5.428648309393203
100
AcDbArc
 50
285.2551187031
 51
287.108652213
  0
ARC
  5
9B
330
7B
100
AcDbEntity
  8
0
  6
Continuous
 62
   179
370
    18
100
AcDbCircle
 10
89.1317168954
 20
3.3539617753
 30
0.0
 40
1.322436378825653
100
AcDbArc
 50
281.4991866428
 51
285.255118703
  0
ARC
  5
9C
330
7B
100
AcDbEntity
  8
0
  6
Continuous
 62
   179
370
    18
100
AcDbCircle
 10
89.3198255509
 20
2.4293110075
 30
0.0
 40
0.3788454141584939
100
AcDbArc
 50
279.1917900003
 51
281.499186643
  0
ARC
  5
9D
330
7B
100
AcDbEntity
  8
0
  6
Continuous
 62
   179
370
    18
100
AcDbCircle
 10
89.0487250788
 20
4.1046569124
 30
0.0
 40
2.07598399629105
100
AcDbArc
 50
277.7634675038
 51
279.1917900002
  0
ARC
  5
9E
330
7B
100
AcDbEntity
  8
0
  6
Continuous
 62
   179
370
    18
100
AcDbCircle
 10
9.2588909915
 20
6.4054930194
 30
0.0
 40
1.579500000000074
100
AcDbArc
 50
31.0558004991
 51
330.0
  0
ARC
  5
9F
330
7B
100
AcDbEntity
  8
0
  6
Continuous
 62
   179
370
    18
100
AcDbCircle
 10
9.2588909915
 20
6.4054930194
 30
0.0
 40
2.281500000000107
100
AcDbArc
 50
30.7309172659
 51
330.0
  0
ARC
  5
A0
330
7B
100
AcDbEntity
  8
0
  6
Continuous
 62
   179
370
    18
100
AcDbCircle
 10
6.1288847544
 20
4.0685261312
 30
0.0
 40
4.914000000000307
100
AcDbArc
 50
172.3058370354
 51
179.7113029221
  0
ARC
  5
A1
330
7B
100
AcDbEntity
  8
0
  6
Continuous
 62
   179
370
    18
100
AcDbCircle
 10
-0.5401152456
 20
4.0685261312
 30
0.0
 40
4.91400000000019
100
AcDbArc
 50
0.2886970779
 51
7.6941629646
  0
ARC
  5
A2
330
7B
100
AcDbEntity
  8
0
  6
Continuous
 62
   179
370
    18
100
AcDbCircle
 10
-0.5401152456
 20
4.0685261312
 30
0.0
 40
5.616000000000127
100
AcDbArc
 50
0.2526096926
 51
53.5764263577
  0
ARC
  5
A3
330
7B
100
AcDbEntity
  8
0
  6
Continuous
 62
   179
370
    18
100
AcDbCircle
 10
6.1288847544
 20
4.0685261312
 30
0.0
 40
5.61600000000074
100
AcDbArc
 50
126.4235736423
 51
179.7473903073
  0
ARC
  5
A4
330
7B
100
AcDbEntity
  8
0
  6
Continuous
 62
   179
370
    18
100
AcDbCircle
 10
-0.5401152456
 20
4.0685261312
 30
0.0
 40
4.914000000000161
100
AcDbArc
 50
16.0658750272
 51
47.2678899574
  0
ARC
  5
A5
330
7B
100
AcDbEntity
  8
0
  6
Continuous
 62
   179
370
    18
100
AcDbCircle
 10
6.1288847544
 20
4.0685261312
 30
0.0
 40
4.914000000000584
100
AcDbArc
 50
132.7321100426
 51
163.9341249728
  0
LINE
  5
A6
330
7B
100
AcDbEntity
  8
0
  6
Continuous
 62
   179
370
    18
100
AcDbLine
 10
78.8017089389
 20
2.8885802402
 30
0.0
 11
90.7982178739
 21
3.8455002136
 31
0.0
  0
LINE
  5
A7
330
7B
100
AcDbEntity
  8
0
  6
Continuous
 62
   179
370
    18
100
AcDbLine
 10
76.6545490427
 20
5.8693097374
 30
0.0
 11
78.0344191726
 21
3.5235305166
 31
0.0
  0
LINE
  5
A8
330
7B
100
AcDbEntity
  8
0
  6
Continuous
 62
   179
370
    18
100
AcDbLine
 10
91.5327615373
 20
4.6257342197
 30
0.0
 11
90.9577457715
 21
13.4579763825
 31
0.0
  0
LINE
  5
A9
330
7B
100
AcDbEntity
  8
0
  6
Continuous
 62
   179
370
    18
100
AcDbLine
 10
78.6309362756
 20
12.8788539549
 30
0.0
 11
78.8360757629
 21
3.6475770268
 31
0.0
  0
LINE
  5
AA
330
7B
100
AcDbEntity
  8
0
  6
Continuous
 62
   179
370
    18
100
AcDbLine
 10
80.4094186633
 20
4.6950685544
 30
0.0
 11
90.1819221045
 21
5.4824266516
 31
0.0
  0
LINE
  5
AB
330
7B
100
AcDbEntity
  8
0
  6
Continuous
 62
   179
370
    18
100
AcDbLine
 10
79.1595373973
 20
3.3551666867
 30
0.0
 11
91.2569309872
 21
4.3071688694
 31
0.0
  0
LINE
  5
AC
330
7B
100
AcDbEntity
  8
0
  6
Continuous
 62
   179
370
    18
100
AcDbLine
 10
79.2585043218
 20
2.925017226
 30
0.0
 11
80.4858981444
 21
1.533240302
 31
0.0
  0
LINE
  5
AD
330
7B
100
AcDbEntity
  8
0
  6
Continuous
 62
   179
370
    18
100
AcDbLine
 10
78.0344191726
 20
3.5235305166
 30
0.0
 11
78.3638740472
 21
3.1446574108
 31
0.0
  0
LINE
  5
AE
330
7B
100
AcDbEntity
  8
0
  6
Continuous
 62
   179
370
    18
100
AcDbLine
 10
78.3638740472
 20
3.1446574108
 30
0.0
 11
78.4680611395
 21
3.0248422547
 31
0.0
  0
LINE
  5
AF
330
7B
100
AcDbEntity
  8
0
  6
Continuous
 62
   179
370
    18
100
AcDbLine
 10
81.3414110113
 20
1.2002475785
 30
0.0
 11
89.3291569519
 21
2.0477010263
 31
0.0
  0
LINE
  5
B0
330
7B
100
AcDbEntity
  8
0
  6
Continuous
 62
   179
370
    18
100
AcDbLine
 10
89.8661472522
 20
2.5197759309
 30
0.0
 11
89.8661472522
 21
2.3090867337
 31
0.0
  0
LINE
  5
B1
330
7B
100
AcDbEntity
  8
0
  6
Continuous
 62
   179
370
    18
100
AcDbLine
 10
88.676842368
 20
3.6762854359
 30
0.0
 11
89.6713239345
 21
2.7875997807
 31
0.0
  0
LINE
  5
B2
330
7B
100
AcDbEntity
  8
0
  6
Continuous
 62
   179
370
    18
100
AcDbLine
 10
89.6713239345
 20
2.7875997807
 30
0.0
 11
89.7459749087
 21
2.7242700694
 31
0.0
  0
LINE
  5
B3
330
7B
100
AcDbEntity
  8
0
  6
Continuous
 62
   179
370
    18
100
AcDbLine
 10
90.7982178739
 20
3.8455002136
 30
0.0
 11
91.3961615969
 21
4.3514525945
 31
0.0
  0
LINE
  5
B4
330
7B
100
AcDbEntity
  8
0
  6
Continuous
 62
   179
370
    18
100
AcDbLine
 10
90.6442498554
 20
13.7381534621
 30
0.0
 11
78.1502930503
 21
13.1490474438
 31
0.0
  0
LINE
  5
B5
330
7B
100
AcDbEntity
  8
0
  6
Continuous
 62
   179
370
    18
100
AcDbLine
 10
80.1347709981
 20
12.2388892068
 30
0.0
 11
89.8487925667
 21
12.7550932515
 31
0.0
  0
LINE
  5
B6
330
7B
100
AcDbEntity
  8
0
  6
Continuous
 62
   179
370
    18
100
AcDbLine
 10
76.4935641943
 20
11.7567556248
 30
0.0
 11
76.6545490427
 21
5.8693097374
 31
0.0
  0
LINE
  5
B7
330
7B
100
AcDbEntity
  8
0
  6
Continuous
 62
   179
370
    18
100
AcDbLine
 10
79.8508616208
 20
11.929182536
 30
0.0
 11
80.0854971721
 21
4.9839702153
 31
0.0
  0
LINE
  5
B8
330
7B
100
AcDbEntity
  8
0
  6
Continuous
 62
   179
370
    18
100
AcDbLine
 10
80.5293311574
 20
9.7310185051
 30
0.0
 11
80.6057415643
 21
7.4769115
 31
0.0
  0
LINE
  5
B9
330
7B
100
AcDbEntity
  8
0
  6
Continuous
 62
   179
370
    18
100
AcDbLine
 10
77.507650604
 20
12.7708420346
 30
0.0
 11
76.4935641943
 21
11.7567556248
 31
0.0
  0
LINE
  5
BA
330
7B
100
AcDbEntity
  8
0
  6
Continuous
 62
   179
370
    18
100
AcDbLine
 10
86.8848195129
 20
11.0661568594
 30
0.0
 11
88.6742167283
 21
11.1634880887
 31
0.0
  0
LINE
  5
BB
330
7B
100
AcDbEntity
  8
0
  6
Continuous
 62
   179
370
    18
100
AcDbLine
 10
87.0766213517
 20
6.9287171941
 30
0.0
 11
88.90708891
 21
7.0695223909
 31
0.0
  0
LINE
  5
BC
330
7B
100
AcDbEntity
  8
0
  6
Continuous
 62
   179
370
    18
100
AcDbLine
 10
87.6830038473
 20
7.6147347768
 30
0.0
 11
88.8536252418
 21
7.7047825764
 31
0.0
  0
LINE
  5
BD
330
7B
100
AcDbEntity
  8
0
  6
Continuous
 62
   179
370
    18
100
AcDbLine
 10
87.5509212094
 20
10.4639459651
 30
0.0
 11
88.7088412777
 21
10.5269290651
 31
0.0
  0
LINE
  5
BE
330
7B
100
AcDbEntity
  8
0
  6
Continuous
 62
   179
370
    18
100
AcDbLine
 10
87.0766218384
 20
6.9287066941
 30
0.0
 11
86.8848195129
 21
11.0661568594
 31
0.0
  0
LINE
  5
BF
330
7B
100
AcDbEntity
  8
0
  6
Continuous
 62
   179
370
    18
100
AcDbLine
 10
83.7004598825
 20
6.6667911093
 30
0.0
 11
84.5054929504
 21
10.9267193262
 31
0.0
  0
LINE
  5
C0
330
7B
100
AcDbEntity
  8
0
  6
Continuous
 62
   179
370
    18
100
AcDbLine
 10
85.3543248406
 20
10.9728900984
 30
0.0
 11
86.4940946704
 21
6.8816860929
 31
0.0
  0
LINE
  5
C1
330
7B
100
AcDbEntity
  8
0
  6
Continuous
 62
   179
370
    18
100
AcDbLine
 10
84.9728575427
 20
9.9667192298
 30
0.0
 11
85.4540299774
 21
8.2395506903
 31
0.0
  0
LINE
  5
C2
330
7B
100
AcDbEntity
  8
0
  6
Continuous
 62
   179
370
    18
100
AcDbLine
 10
84.6363094629
 20
8.1858350416
 30
0.0
 11
84.9728575427
 21
9.9667192298
 31
0.0
  0
LINE
  5
C3
330
7B
100
AcDbEntity
  8
0
  6
Continuous
 62
   179
370
    18
100
AcDbLine
 10
87.6830038473
 20
7.6147347768
 30
0.0
 11
87.5509212094
 21
10.4639459651
 31
0.0
  0
LINE
  5
C4
330
7B
100
AcDbEntity
  8
0
  6
Continuous
 62
   179
370
    18
100
AcDbLine
 10
84.6363094629
 20
8.1858350416
 30
0.0
 11
85.4540299774
 21
8.2395506903
 31
0.0
  0
LINE
  5
C5
330
7B
100
AcDbEntity
  8
0
  6
Continuous
 62
   179
370
    18
100
AcDbLine
 10
84.5140586807
 20
7.5389304886
 30
0.0
 11
85.6288154243
 21
7.6121582976
 31
0.0
  0
LINE
  5
C6
330
7B
100
AcDbEntity
  8
0
  6
Continuous
 62
   179
370
    18
100
AcDbLine
 10
84.3588137958
 20
6.717433718
 30
0.0
 11
84.5140586807
 21
7.5389304886
 31
0.0
  0
LINE
  5
C7
330
7B
100
AcDbEntity
  8
0
  6
Continuous
 62
   179
370
    18
100
AcDbLine
 10
81.6818640104
 20
6.5137358601
 30
0.0
 11
82.4802416972
 21
6.5751495283
 31
0.0
  0
LINE
  5
C8
330
7B
100
AcDbEntity
  8
0
  6
Continuous
 62
   179
370
    18
100
AcDbLine
 10
81.6329699923
 20
7.1493580946
 30
0.0
 11
82.4313476791
 21
7.2107717628
 31
0.0
  0
LINE
  5
C9
330
7B
100
AcDbEntity
  8
0
  6
Continuous
 62
   179
370
    18
100
AcDbLine
 10
83.7004598825
 20
6.6667911093
 30
0.0
 11
84.3588137958
 21
6.717433718
 31
0.0
  0
LINE
  5
CA
330
7B
100
AcDbEntity
  8
0
  6
Continuous
 62
   179
370
    18
100
AcDbLine
 10
82.7059483815
 20
9.3512024135
 30
0.0
 11
83.3423973297
 21
9.3930104243
 31
0.0
  0
LINE
  5
CB
330
7B
100
AcDbEntity
  8
0
  6
Continuous
 62
   179
370
    18
100
AcDbLine
 10
82.7491656358
 20
8.0762934118
 30
0.0
 11
83.385614584
 21
8.1181014226
 31
0.0
  0
LINE
  5
CC
330
7B
100
AcDbEntity
  8
0
  6
Continuous
 62
   179
370
    18
100
AcDbLine
 10
81.1664651987
 20
9.7526162692
 30
0.0
 11
81.2428756056
 21
7.4985092641
 31
0.0
  0
LINE
  5
CD
330
7B
100
AcDbEntity
  8
0
  6
Continuous
 62
   179
370
    18
100
AcDbLine
 10
82.6900353128
 20
9.8206379383
 30
0.0
 11
82.7052632884
 21
9.3714126602
 31
0.0
  0
LINE
  5
CE
330
7B
100
AcDbEntity
  8
0
  6
Continuous
 62
   179
370
    18
100
AcDbLine
 10
82.7491656358
 20
8.0762934118
 30
0.0
 11
82.7658371041
 21
7.5844850954
 31
0.0
  0
LINE
  5
CF
330
7B
100
AcDbEntity
  8
0
  6
Continuous
 62
   179
370
    18
100
AcDbLine
 10
83.3271693541
 20
9.8422357024
 30
0.0
 11
83.3423973297
 21
9.3930104243
 31
0.0
  0
LINE
  5
D0
330
7B
100
AcDbEntity
  8
0
  6
Continuous
 62
   179
370
    18
100
AcDbLine
 10
83.385614584
 20
8.1181014226
 30
0.0
 11
83.4029711454
 21
7.6060828595
 31
0.0
  0
LINE
  5
D1
330
7B
100
AcDbEntity
  8
0
  6
Continuous
 62
   179
370
    18
100
AcDbLine
 10
85.6288154243
 20
7.6121582976
 30
0.0
 11
85.8462022593
 21
6.8318482152
 31
0.0
  0
LINE
  5
D2
330
7B
100
AcDbEntity
  8
0
  6
Continuous
 62
   179
370
    18
100
AcDbLine
 10
85.8462022593
 20
6.8318482152
 30
0.0
 11
86.4940946704
 21
6.8816860929
 31
0.0
  0
LINE
  5
D3
330
7B
100
AcDbEntity
  8
0
  6
Continuous
 62
   179
370
    18
100
AcDbLine
 10
84.5054929504
 20
10.9267193262
 30
0.0
 11
85.3543248406
 21
10.9728900984
 31
0.0
  0
LINE
  5
D4
330
7B
100
AcDbEntity
  8
0
  6
Continuous
 62
   179
370
    18
100
AcDbLine
 10
81.4744440858
 20
10.7634213094
 30
0.0
 11
82.2734303883
 21
10.8068808154
 31
0.0
  0
LINE
  5
D5
330
7B
100
AcDbEntity
  8
0
  6
Continuous
 62
   179
370
    18
100
AcDbLine
 10
81.5090686352
 20
10.1268622858
 30
0.0
 11
82.3080549377
 21
10.1703217918
 31
0.0
  0
LINE
  5
D6
330
7B
100
AcDbEntity
  8
0
  6
Continuous
 62
   179
370
    18
100
AcDbLine
 10
90.4575406452
 20
5.7946206556
 30
0.0
 11
90.1644232213
 21
12.4686789239
 31
0.0
  0
LINE
  5
D7
330
7B
100
AcDbEntity
  8
0
  6
Continuous
 62
   179
370
    18
100
AcDbLine
 10
89.8247499755
 20
8.1125227115
 30
0.0
 11
89.7274569615
 21
10.2112720142
 31
0.0
  0
LINE
  5
D8
330
7B
100
AcDbEntity
  8
0
  6
Continuous
 62
   179
370
    18
100
AcDbLine
 10
89.1879338763
 20
8.0830014354
 30
0.0
 11
89.0906408622
 21
10.181750738
 31
0.0
  0
LINE
  5
D9
330
7B
100
AcDbEntity
  8
0
  6
Continuous
 62
   179
370
    18
100
AcDbLine
 10
89.7459749087
 20
2.7242700694
 30
0.0
 11
89.7974962577
 21
2.6659765769
 31
0.0
  0
LINE
  5
DA
330
7B
100
AcDbEntity
  8
0
  6
Continuous
 62
   179
370
    18
100
AcDbLine
 10
89.7974962577
 20
2.6659765769
 30
0.0
 11
89.8351851379
 21
2.60192886
 31
0.0
  0
LINE
  5
DB
330
7B
100
AcDbEntity
  8
0
  6
Continuous
 62
   179
370
    18
100
AcDbLine
 10
89.8351851379
 20
2.60192886
 30
0.0
 11
89.8661472522
 21
2.5197759309
 31
0.0
  0
LINE
  5
DC
330
7B
100
AcDbEntity
  8
0
  6
Continuous
 62
   179
370
    18
100
AcDbLine
 10
10.6119938288
 20
7.2203138351
 30
0.0
 11
11.2200151261
 21
7.5713550947
 31
0.0
  0
LINE
  5
DD
330
7B
100
AcDbEntity
  8
0
  6
Continuous
 62
   179
370
    18
100
AcDbLine
 10
11.2347279503
 20
5.2647430194
 30
0.0
 11
10.6267781168
 21
5.6157430194
 31
0.0
  0
LINE
  5
DE
330
7B
100
AcDbEntity
  8
0
  6
Continuous
 62
   179
370
    18
100
AcDbLine
 10
6.4645062371
 20
16.1712617198
 30
0.0
 11
6.4645062371
 21
2.9364593988
 31
0.0
  0
LINE
  5
DF
330
7B
100
AcDbEntity
  8
0
  6
Continuous
 62
   179
370
    18
100
AcDbLine
 10
6.4645062371
 20
2.9364593988
 30
0.0
 11
12.0532757459
 21
2.9364593988
 31
0.0
  0
LINE
  5
E0
330
7B
100
AcDbEntity
  8
0
  6
Continuous
 62
   179
370
    18
100
AcDbLine
 10
12.0532757459
 20
2.9364593988
 30
0.0
 11
12.0532757459
 21
16.1712617198
 31
0.0
  0
LINE
  5
E1
330
7B
100
AcDbEntity
  8
0
  6
Continuous
 62
   179
370
    18
100
AcDbLine
 10
12.0532757459
 20
16.1712617198
 30
0.0
 11
6.4645062371
 21
16.1712617198
 31
0.0
  0
LINE
  5
E2
330
7B
100
AcDbEntity
  8
0
  6
Continuous
 62
   179
370
    18
100
AcDbLine
 10
0.0
 20
16.1712617198
 30
0.0
 11
0.0
 21
2.9364593988
 31
0.0
  0
LINE
  5
E3
330
7B
100
AcDbEntity
  8
0
  6
Continuous
 62
   179
370
    18
100
AcDbLine
 10
0.0
 20
2.9364593988
 30
0.0
 11
5.5887695089
 21
2.9364593988
 31
0.0
  0
LINE
  5
E4
330
7B
100
AcDbEntity
  8
0
  6
Continuous
 62
   179
370
    18
100
AcDbLine
 10
5.5887695089
 20
2.9364593988
 30
0.0
 11
5.5887695089
 21
16.1712617198
 31
0.0
  0
LINE
  5
E5
330
7B
100
AcDbEntity
  8
0
  6
Continuous
 62
   179
370
    18
100
AcDbLine
 10
5.5887695089
 20
16.1712617198
 30
0.0
 11
0.0
 21
16.1712617198
 31
0.0
  0
LINE
  5
E6
330
7B
100
AcDbEntity
  8
0
  6
Continuous
 62
   179
370
    18
100
AcDbLine
 10
1.2591262606
 20
4.7264381407
 30
0.0
 11
4.3296432482
 21
4.7264381407
 31
0.0
  0
LINE
  5
E7
330
7B
100
AcDbEntity
  8
0
  6
Continuous
 62
   179
370
    18
100
AcDbLine
 10
4.3738223747
 20
4.0932862697
 30
0.0
 11
5.0758301722
 21
4.0932862697
 31
0.0
  0
LINE
  5
E8
330
7B
100
AcDbEntity
  8
0
  6
Continuous
 62
   179
370
    18
100
AcDbLine
 10
0.5129393366
 20
4.0932862697
 30
0.0
 11
1.2149471342
 21
4.0932862697
 31
0.0
  0
LINE
  5
E9
330
7B
100
AcDbEntity
  8
0
  6
Continuous
 62
   179
370
    18
100
AcDbLine
 10
4.1819643097
 20
5.4284381407
 30
0.0
 11
1.4068051992
 21
5.4284381407
 31
0.0
  0
LINE
  5
EA
330
7B
100
AcDbEntity
  8
0
  6
Continuous
 62
   179
370
    18
100
AcDbLine
 10
18.517781983
 20
16.1712617198
 30
0.0
 11
18.517781983
 21
2.9364593988
 31
0.0
  0
LINE
  5
EB
330
7B
100
AcDbEntity
  8
0
  6
Continuous
 62
   179
370
    18
100
AcDbLine
 10
18.517781983
 20
2.9364593988
 30
0.0
 11
12.9290124742
 21
2.9364593988
 31
0.0
  0
LINE
  5
EC
330
7B
100
AcDbEntity
  8
0
  6
Continuous
 62
   179
370
    18
100
AcDbLine
 10
12.9290124742
 20
2.9364593988
 30
0.0
 11
12.9290124742
 21
16.1712617198
 31
0.0
  0
LINE
  5
ED
330
7B
100
AcDbEntity
  8
0
  6
Continuous
 62
   179
370
    18
100
AcDbLine
 10
12.9290124742
 20
16.1712617198
 30
0.0
 11
18.517781983
 21
16.1712617198
 31
0.0
  0
INSERT
  5
F3
330
7B
100
AcDbEntity
  8
0
  6
Continuous
 62
     7
370
     0
100
AcDbBlockReference
  2
SW_NOTE_0
 10
1.8998941161
 20
-0.3226565443
 30
0.0
  0
INSERT
  5
F8
330
7B
100
AcDbEntity
  8
0
  6
Continuous
 62
     7
370
     0
100
AcDbBlockReference
  2
SW_NOTE_0_1
 10
29.1164837035
 20
12.7459167441
 30
0.0
  0
INSERT
  5
100
330
7B
100
AcDbEntity
  8
0
  6
Continuous
 62
     7
370
     0
100
AcDbBlockReference
  2
SW_NOTE_0_2
 10
28.8863479825
 20
8.6365742194
 30
0.0
  0
ENDBLK
  5
7D
330
7B
100
AcDbEntity
  8
0
100
AcDbBlockEnd
  0
BLOCK
  5
EF
330
EE
100
AcDbEntity
  8
0
100
AcDbBlockBegin
  2
SW_NOTE_0
 70
     0
 10
0.0
 20
0.0
 30
0.0
  3
SW_NOTE_0
  1

  0
MTEXT
  5
F2
330
EE
100
AcDbEntity
  8
0
  6
Continuous
 62
     0
370
     0
100
AcDbMText
 10
7.46875
 20
2.5781354795
 30
0.0
 40
2.0
 41
0.0
 71
     2
 72
     1
  1
www.aco.ch
  7
SLDTEXTSTYLE0
 73
     1
 44
1.0
  0
ENDBLK
  5
F0
330
EE
100
AcDbEntity
  8
0
100
AcDbBlockEnd
  0
BLOCK
  5
F5
330
F4
100
AcDbEntity
  8
0
100
AcDbBlockBegin
  2
SW_NOTE_0_1
 70
     0
 10
0.0
 20
0.0
 30
0.0
  3
SW_NOTE_0_1
  1

  0
MTEXT
  5
F7
330
F4
100
AcDbEntity
  8
0
  6
Continuous
 62
     0
370
     0
100
AcDbMText
 10
0.0
 20
3.8672032193
 30
0.0
 40
3.0
 41
0.0
 71
     1
 72
     1
  1
ACO AG
  7
SLDTEXTSTYLE0
 73
     1
 44
1.0
  0
ENDBLK
  5
F6
330
F4
100
AcDbEntity
  8
0
100
AcDbBlockEnd
  0
BLOCK
  5
FA
330
F9
100
AcDbEntity
  8
0
100
AcDbBlockBegin
  2
SW_NOTE_0_2
 70
     0
 10
0.0
 20
0.0
 30
0.0
  3
SW_NOTE_0_2
  1

  0
MTEXT
  5
FC
330
F9
100
AcDbEntity
  8
0
  6
Continuous
 62
     0
370
     0
100
AcDbMText
 10
0.0
 20
2.5781354795
 30
0.0
 40
2.0
 41
0.0
 71
     1
 72
     1
  1
Industrie Kleinzaun
  7
SLDTEXTSTYLE0
 73
     1
 44
1.0
  0
MTEXT
  5
FD
330
F9
100
AcDbEntity
  8
0
  6
Continuous
 62
     0
370
     0
100
AcDbMText
 10
0.0
 20
-0.4218645465
 30
0.0
 40
2.0
 41
0.0
 71
     1
 72
     1
  1
CH-8754 Netstal
  7
SLDTEXTSTYLE0
 73
     1
 44
1.0
  0
MTEXT
  5
FE
330
F9
100
AcDbEntity
  8
0
  6
Continuous
 62
     0
370
     0
100
AcDbMText
 10
0.0
 20
-3.4218645726
 30
0.0
 40
2.0
 41
0.0
 71
     1
 72
     1
  1
Tel. 055 / 645 53 00
  7
SLDTEXTSTYLE0
 73
     1
 44
1.0
  0
MTEXT
  5
FF
330
F9
100
AcDbEntity
  8
0
  6
Continuous
 62
     0
370
     0
100
AcDbMText
 10
0.0
 20
-6.4218645987
 30
0.0
 40
2.0
 41
0.0
 71
     1
 72
     1
  1
E-Mail: aco@aco.ch
  7
SLDTEXTSTYLE0
 73
     1
 44
1.0
  0
ENDBLK
  5
FB
330
F9
100
AcDbEntity
  8
0
100
AcDbBlockEnd
  0
BLOCK
  5
179
330
178
100
AcDbEntity
  8
0
100
AcDbBlockBegin
  2
SW_NOTE_0_3
 70
     0
 10
0.0
 20
0.0
 30
0.0
  3
SW_NOTE_0_3
  1

  0
MTEXT
  5
17B
330
178
100
AcDbEntity
  8
0
  6
Continuous
 62
     0
370
     0
100
AcDbMText
 10
0.0
 20
1.9336016097
 30
0.0
 40
1.5
 41
0.0
 71
     1
 72
     1
  1
Diese Zeichnung darf weder kopiert
  7
SLDTEXTSTYLE0
 73
     1
 44
1.0
  0
MTEXT
  5
17C
330
178
100
AcDbEntity
  8
0
  6
Continuous
 62
     0
370
     0
100
AcDbMText
 10
0.0
 20
-0.5663983345
 30
0.0
 40
1.5
 41
0.0
 71
     1
 72
     1
  1
noch dritten Personen, insbesondere
  7
SLDTEXTSTYLE0
 73
     1
 44
1.0
  0
MTEXT
  5
17D
330
178
100
AcDbEntity
  8
0
  6
Continuous
 62
     0
370
     0
100
AcDbMText
 10
0.0
 20
-3.0663982786
 30
0.0
 40
1.5
 41
0.0
 71
     1
 72
     1
  1
zum Zweck anderweitiger Benutzung
  7
SLDTEXTSTYLE0
 73
     1
 44
1.0
  0
MTEXT
  5
17E
330
178
100
AcDbEntity
  8
0
  6
Continuous
 62
     0
370
     0
100
AcDbMText
 10
0.0
 20
-5.5663982227
 30
0.0
 40
1.5
 41
0.0
 71
     1
 72
     1
  1
mitgeteilt werden und bleibt unser
  7
SLDTEXTSTYLE0
 73
     1
 44
1.0
  0
MTEXT
  5
17F
330
178
100
AcDbEntity
  8
0
  6
Continuous
 62
     0
370
     0
100
AcDbMText
 10
0.0
 20
-8.0663981668
 30
0.0
 40
1.5
 41
0.0
 71
     1
 72
     1
  1
Eigentum.
  7
SLDTEXTSTYLE0
 73
     1
 44
1.0
  0
ENDBLK
  5
17A
330
178
100
AcDbEntity
  8
0
100
AcDbBlockEnd
  0
BLOCK
  5
353
330
352
100
AcDbEntity
  8
0
100
AcDbBlockBegin
  2
_D
 70
     0
 10
0.0
 20
0.0
 30
0.0
  3
_D
  1

  0
SOLID
  5
355
330
352
100
AcDbEntity
  8
0
  6
Continuous
 62
     7
370
    18
100
AcDbTrace
 10
46.4573239707
 20
175.3606652663
 30
0.0
 11
46.9957855091
 21
178.8606652663
 31
0.0
 12
45.9188624322
 22
178.8606652663
 32
0.0
 13
45.9188624322
 23
178.8606652663
 33
0.0
  0
SOLID
  5
356
330
352
100
AcDbEntity
  8
0
  6
Continuous
 62
     7
370
    18
100
AcDbTrace
 10
46.4573239707
 20
251.3606652663
 30
0.0
 11
45.9188624322
 21
247.8606652663
 31
0.0
 12
46.9957855091
 22
247.8606652663
 32
0.0
 13
46.9957855091
 23
247.8606652663
 33
0.0
  0
LINE
  5
357
330
352
100
AcDbEntity
  8
0
  6
Continuous
 62
     7
370
     0
100
AcDbLine
 10
56.3573239707
 20
175.3606652663
 30
0.0
 11
45.4573239707
 21
175.3606652663
 31
0.0
  0
LINE
  5
358
330
352
100
AcDbEntity
  8
0
  6
Continuous
 62
     7
370
     0
100
AcDbLine
 10
56.3573239707
 20
251.3606652663
 30
0.0
 11
45.4573239707
 21
251.3606652663
 31
0.0
  0
LINE
  5
359
330
352
100
AcDbEntity
  8
0
  6
Continuous
 62
     7
370
     0
100
AcDbLine
 10
46.4573239707
 20
175.3606652663
 30
0.0
 11
46.4573239707
 21
251.3606652663
 31
0.0
  0
MTEXT
  5
35A
330
352
100
AcDbEntity
  8
0
  6
Continuous
 62
     7
370
    18
100
AcDbMText
 10
41.9455868814
 20
208.1355786817
 30
0.0
 40
3.5
 41
0.0
 71
     1
 72
     1
  1
%%c
  7
SLDTEXTSTYLE0
 11
6.123233995736766E-17
 21
1.0
 31
0.0
 73
     1
 44
1.0
  0
MTEXT
  5
35B
330
352
100
AcDbEntity
  8
0
  6
Continuous
 62
     7
370
    18
100
AcDbMText
 10
41.9358645723
 20
213.2385302269
 30
0.0
 40
3.5
 41
0.0
 71
     1
 72
     1
  1
76
  7
SLDTEXTSTYLE0
 11
6.123233995736766E-17
 21
1.0
 31
0.0
 73
     1
 44
1.0
  0
ENDBLK
  5
354
330
352
100
AcDbEntity
  8
0
100
AcDbBlockEnd
  0
BLOCK
  5
35E
330
35D
100
AcDbEntity
  8
0
100
AcDbBlockBegin
  2
_D_1
 70
     0
 10
0.0
 20
0.0
 30
0.0
  3
_D_1
  1

  0
SOLID
  5
360
330
35D
100
AcDbEntity
  8
0
  6
Continuous
 62
     7
370
    18
100
AcDbTrace
 10
219.2041700044
 20
205.3961525109
 30
0.0
 11
216.9878486332
 21
202.6342943669
 31
0.0
 12
217.9204913757
 22
202.0958328284
 32
0.0
 13
217.9204913757
 23
202.0958328284
 33
0.0
  0
SOLID
  5
361
330
35D
100
AcDbEntity
  8
0
  6
Continuous
 62
     7
370
    18
100
AcDbTrace
 10
181.7041700044
 20
140.4442472271
 30
0.0
 11
183.9204913757
 21
143.2061053711
 31
0.0
 12
182.9878486332
 22
143.7445669095
 32
0.0
 13
182.9878486332
 23
143.7445669095
 33
0.0
  0
LINE
  5
362
330
35D
100
AcDbEntity
  8
0
  6
Continuous
 62
     7
370
     0
100
AcDbLine
 10
205.543140151
 20
213.2833517742
 30
0.0
 11
220.0701954082
 21
204.8961525109
 31
0.0
  0
LINE
  5
363
330
35D
100
AcDbEntity
  8
0
  6
Continuous
 62
     7
370
     0
100
AcDbLine
 10
168.043140151
 20
148.3314464904
 30
0.0
 11
182.5701954082
 21
139.9442472271
 31
0.0
  0
LINE
  5
364
330
35D
100
AcDbEntity
  8
0
  6
Continuous
 62
     7
370
     0
100
AcDbLine
 10
219.2041700044
 20
205.3961525109
 30
0.0
 11
181.7041700044
 21
140.4442472271
 31
0.0
  0
MTEXT
  5
365
330
35D
100
AcDbEntity
  8
0
  6
Continuous
 62
     7
370
    18
100
AcDbMText
 10
193.9343477776
 20
170.6510106943
 30
0.0
 40
3.5
 41
0.0
 71
     1
 72
     1
  1
%%c
  7
SLDTEXTSTYLE0
 11
0.4999999999999933
 21
0.8660254037844425
 31
0.0
 73
     1
 44
1.0
  0
MTEXT
  5
366
330
35D
100
AcDbEntity
  8
0
  6
Continuous
 62
     7
370
    18
100
AcDbMText
 10
196.4774037835
 20
175.0751575214
 30
0.0
 40
3.5
 41
0.0
 71
     1
 72
     1
  1
75
  7
SLDTEXTSTYLE0
 11
0.4999999999999933
 21
0.8660254037844425
 31
0.0
 73
     1
 44
1.0
  0
ENDBLK
  5
35F
330
35D
100
AcDbEntity
  8
0
100
AcDbBlockEnd
  0
BLOCK
  5
36A
330
369
100
AcDbEntity
  8
0
100
AcDbBlockBegin
  2
_D_2
 70
     0
 10
0.0
 20
0.0
 30
0.0
  3
_D_2
  1

  0
SOLID
  5
36C
330
369
100
AcDbEntity
  8
0
  6
Continuous
 62
     7
370
    18
100
AcDbTrace
 10
56.4573239707
 20
266.9606652663
 30
0.0
 11
59.9573239707
 21
266.4222037279
 31
0.0
 12
59.9573239707
 22
267.4991268048
 32
0.0
 13
59.9573239707
 23
267.4991268048
 33
0.0
  0
SOLID
  5
36D
330
369
100
AcDbEntity
  8
0
  6
Continuous
 62
     7
370
    18
100
AcDbTrace
 10
209.8953816772
 20
266.9606652663
 30
0.0
 11
206.3953816772
 21
267.4991268048
 31
0.0
 12
206.3953816772
 22
266.4222037279
 32
0.0
 13
206.3953816772
 23
266.4222037279
 33
0.0
  0
LINE
  5
36E
330
369
100
AcDbEntity
  8
0
  6
Continuous
 62
     7
370
     0
100
AcDbLine
 10
56.4573239707
 20
252.4606652663
 30
0.0
 11
56.4573239707
 21
267.9606652663
 31
0.0
  0
LINE
  5
36F
330
369
100
AcDbEntity
  8
0
  6
Continuous
 62
     7
370
     0
100
AcDbLine
 10
209.8953816772
 20
209.230909193
 30
0.0
 11
209.8953816772
 21
267.9606652663
 31
0.0
  0
LINE
  5
370
330
369
100
AcDbEntity
  8
0
  6
Continuous
 62
     7
370
     0
100
AcDbLine
 10
56.4573239707
 20
266.9606652663
 30
0.0
 11
209.8953816772
 21
266.9606652663
 31
0.0
  0
MTEXT
  5
371
330
369
100
AcDbEntity
  8
0
  6
Continuous
 62
     7
370
    18
100
AcDbMText
 10
127.1607279729
 20
271.4724025884
 30
0.0
 40
3.5
 41
0.0
 71
     1
 72
     1
  1
153.4
  7
SLDTEXTSTYLE0
 73
     1
 44
1.0
  0
ENDBLK
  5
36B
330
369
100
AcDbEntity
  8
0
100
AcDbBlockEnd
  0
BLOCK
  5
375
330
374
100
AcDbEntity
  8
0
100
AcDbBlockBegin
  2
_D_3
 70
     0
 10
0.0
 20
0.0
 30
0.0
  3
_D_3
  1

  0
ARC
  5
377
330
374
100
AcDbEntity
  8
0
  6
Continuous
 62
     7
370
    18
100
AcDbCircle
 10
130.4092292545
 20
213.3606652663
 30
0.0
 40
29.13988458128298
100
AcDbArc
 50
330.0
 51
0.0
  0
SOLID
  5
378
330
374
100
AcDbEntity
  8
0
  6
Continuous
 62
     7
370
    18
100
AcDbTrace
 10
155.6451095652
 20
198.7907229757
 30
0.0
 11
157.6924986679
 21
201.6800375468
 31
0.0
 12
156.7293572199
 22
202.1618278171
 32
0.0
 13
156.7293572199
 23
202.1618278171
 33
0.0
  0
SOLID
  5
379
330
374
100
AcDbEntity
  8
0
  6
Continuous
 62
     7
370
    18
100
AcDbTrace
 10
159.5491138358
 20
213.3606652663
 30
0.0
 11
158.802547428
 21
209.8990790075
 31
0.0
 12
159.8775475246
 22
209.8347508969
 32
0.0
 13
159.8775475246
 23
209.8347508969
 33
0.0
  0
LINE
  5
37A
330
374
100
AcDbEntity
  8
0
  6
Continuous
 62
     7
370
     0
100
AcDbLine
 10
132.7456810631
 20
213.3606652663
 30
0.0
 11
160.5491138358
 21
213.3606652663
 31
0.0
  0
MTEXT
  5
37B
330
374
100
AcDbEntity
  8
0
  6
Continuous
 62
     7
370
    18
100
AcDbMText
 10
153.2570979587
 20
203.4742181496
 30
0.0
 40
3.5
 41
0.0
 71
     1
 72
     1
  1
30°
  7
SLDTEXTSTYLE0
 11
0.2588190451025242
 21
0.9659258262890674
 31
0.0
 73
     1
 44
1.0
  0
ENDBLK
  5
376
330
374
100
AcDbEntity
  8
0
100
AcDbBlockEnd
  0
BLOCK
  5
39A
330
399
100
AcDbEntity
  8
0
100
AcDbBlockBegin
  2
SW_CENTERMARKSYMBOL_0
 70
     0
 10
0.0
 20
0.0
 30
0.0
  3
SW_CENTERMARKSYMBOL_0
  1

  0
LINE
  5
39C
330
399
100
AcDbEntity
  8
0
  6
Continuous
 62
     0
370
    18
100
AcDbLine
 10
0.0
 20
0.0
 30
0.0
 11
0.0
 21
2.5
 31
0.0
  0
LINE
  5
39D
330
399
100
AcDbEntity
  8
0
  6
Continuous
 62
     0
370
    18
100
AcDbLine
 10
0.0
 20
0.0
 30
0.0
 11
-2.5
 21
0.0
 31
0.0
  0
LINE
  5
39E
330
399
100
AcDbEntity
  8
0
  6
Continuous
 62
     0
370
    18
100
AcDbLine
 10
0.0
 20
0.0
 30
0.0
 11
0.0
 21
-2.5
 31
0.0
  0
LINE
  5
39F
330
399
100
AcDbEntity
  8
0
  6
Continuous
 62
     0
370
    18
100
AcDbLine
 10
0.0
 20
0.0
 30
0.0
 11
2.5
 21
0.0
 31
0.0
  0
LINE
  5
3A0
330
399
100
AcDbEntity
  8
0
  6
Continuous
 62
     0
370
    18
100
AcDbLine
 10
0.0
 20
5.0
 30
0.0
 11
0.0
 21
46.1
 31
0.0
  0
LINE
  5
3A1
330
399
100
AcDbEntity
  8
0
  6
Continuous
 62
     0
370
    18
100
AcDbLine
 10
-5.0
 20
0.0
 30
0.0
 11
-46.1
 21
0.0
 31
0.0
  0
LINE
  5
3A2
330
399
100
AcDbEntity
  8
0
  6
Continuous
 62
     0
370
    18
100
AcDbLine
 10
0.0
 20
-5.0
 30
0.0
 11
0.0
 21
-46.1
 31
0.0
  0
LINE
  5
3A3
330
399
100
AcDbEntity
  8
0
  6
Continuous
 62
     0
370
    18
100
AcDbLine
 10
5.0
 20
0.0
 30
0.0
 11
46.1
 21
0.0
 31
0.0
  0
ENDBLK
  5
39B
330
399
100
AcDbEntity
  8
0
100
AcDbBlockEnd
  0
ENDSEC
  0
SECTION
  2
ENTITIES
  0
LINE
  5
101
330
1F
100
AcDbEntity
  8
LINIEN-DÜNN
  6
CENTERX2
100
AcDbLine
 10
352.6174545849
 20
46.9080238789
 30
0.0
 11
352.6174545849
 21
39.4621586124
 31
0.0
  0
LINE
  5
102
330
1F
100
AcDbEntity
  8
LINIEN-DÜNN
100
AcDbLine
 10
357.7661698132
 20
46.3720107039
 30
0.0
 11
357.7661698132
 21
39.9353173413
 31
0.0
  0
LINE
  5
103
330
1F
100
AcDbEntity
  8
LINIEN-DÜNN
100
AcDbLine
 10
364.6059427486
 20
44.7376225767
 30
0.0
 11
364.6059427486
 21
41.5697054685
 31
0.0
  0
LINE
  5
104
330
1F
100
AcDbEntity
  8
LINIEN-DÜNN
100
AcDbLine
 10
364.6059427486
 20
44.7376225767
 30
0.0
 11
357.7661698132
 21
46.3720107039
 31
0.0
  0
LINE
  5
105
330
1F
100
AcDbEntity
  8
LINIEN-DÜNN
100
AcDbLine
 10
15.0
 20
198.5
 30
0.0
 11
20.0
 21
198.5
 31
0.0
  0
LINE
  5
106
330
1F
100
AcDbEntity
  8
LINIEN-DÜNN
100
AcDbLine
 10
12.0
 20
148.5
 30
0.0
 11
0.0
 21
148.5
 31
0.0
  0
LINE
  5
107
330
1F
100
AcDbEntity
  8
LINIEN-DÜNN
100
AcDbLine
 10
357.7661698132
 20
39.9353173413
 30
0.0
 11
364.6059427486
 21
41.5697054685
 31
0.0
  0
LINE
  5
108
330
1F
100
AcDbEntity
  8
LINIEN-DÜNN
  6
CENTERX2
100
AcDbLine
 10
348.6240467841
 20
43.1536640226
 30
0.0
 11
356.6108623857
 21
43.1536640226
 31
0.0
  0
LINE
  5
109
330
1F
100
AcDbEntity
  8
LINIEN-DÜNN
  6
CENTERX2
100
AcDbLine
 10
357.1289238876
 20
43.1536640226
 30
0.0
 11
365.6255362296
 21
43.1536640226
 31
0.0
  0
LINE
  5
10A
330
1F
100
AcDbEntity
  8
LINIEN-DÜNN
100
AcDbLine
 10
0.0
 20
0.0
 30
0.0
 11
420.0
 21
0.0
 31
0.0
  0
LINE
  5
10B
330
1F
100
AcDbEntity
  8
LINIEN-DÜNN
100
AcDbLine
 10
0.0
 20
0.0
 30
0.0
 11
0.0
 21
297.0
 31
0.0
  0
LINE
  5
10C
330
1F
100
AcDbEntity
  8
LINIEN-DÜNN
100
AcDbLine
 10
0.0
 20
297.0
 30
0.0
 11
420.0
 21
297.0
 31
0.0
  0
LINE
  5
10D
330
1F
100
AcDbEntity
  8
LINIEN-DÜNN
100
AcDbLine
 10
420.0
 20
0.0
 30
0.0
 11
420.0
 21
297.0
 31
0.0
  0
LINE
  5
10E
330
1F
100
AcDbEntity
  8
LINIEN-NORMAL
100
AcDbLine
 10
228.0
 20
35.0
 30
0.0
 11
410.0
 21
35.0
 31
0.0
  0
LINE
  5
10F
330
1F
100
AcDbEntity
  8
LINIEN-DÜNN
100
AcDbLine
 10
410.0
 20
198.5
 30
0.0
 11
415.0
 21
198.5
 31
0.0
  0
LINE
  5
110
330
1F
100
AcDbEntity
  8
LINIEN-DÜNN
100
AcDbLine
 10
15.0
 20
148.5
 30
0.0
 11
20.0
 21
148.5
 31
0.0
  0
LINE
  5
111
330
1F
100
AcDbEntity
  8
LINIEN-DÜNN
100
AcDbLine
 10
228.0
 20
40.0
 30
0.0
 11
296.6
 21
40.0
 31
0.0
  0
LINE
  5
112
330
1F
100
AcDbEntity
  8
LINIEN-DÜNN
100
AcDbLine
 10
15.0
 20
248.5
 30
0.0
 11
20.0
 21
248.5
 31
0.0
  0
LINE
  5
113
330
1F
100
AcDbEntity
  8
LINIEN-DICK
100
AcDbLine
 10
20.0
 20
287.0
 30
0.0
 11
20.0
 21
10.0
 31
0.0
  0
LINE
  5
114
330
1F
100
AcDbEntity
  8
LINIEN-DICK
100
AcDbLine
 10
410.0
 20
287.0
 30
0.0
 11
20.0
 21
287.0
 31
0.0
  0
LINE
  5
115
330
1F
100
AcDbEntity
  8
LINIEN-DICK
100
AcDbLine
 10
410.0
 20
5.0
 30
0.0
 11
410.0
 21
287.0
 31
0.0
  0
LINE
  5
116
330
1F
100
AcDbEntity
  8
LINIEN-DICK
100
AcDbLine
 10
20.0
 20
10.0
 30
0.0
 11
415.0
 21
10.0
 31
0.0
  0
LINE
  5
117
330
1F
100
AcDbEntity
  8
LINIEN-DÜNN
100
AcDbLine
 10
410.0
 20
148.5
 30
0.0
 11
415.0
 21
148.5
 31
0.0
  0
LINE
  5
118
330
1F
100
AcDbEntity
  8
LINIEN-DÜNN
100
AcDbLine
 10
228.0
 20
50.0
 30
0.0
 11
296.6
 21
50.0
 31
0.0
  0
LINE
  5
119
330
1F
100
AcDbEntity
  8
LINIEN-DÜNN
100
AcDbLine
 10
15.0
 20
98.5
 30
0.0
 11
20.0
 21
98.5
 31
0.0
  0
LINE
  5
11A
330
1F
100
AcDbEntity
  8
LINIEN-DÜNN
100
AcDbLine
 10
296.6
 20
45.0
 30
0.0
 11
228.0
 21
45.0
 31
0.0
  0
LINE
  5
11B
330
1F
100
AcDbEntity
  8
LINIEN-DÜNN
100
AcDbLine
 10
65.0
 20
292.0
 30
0.0
 11
65.0
 21
287.0
 31
0.0
  0
LINE
  5
11C
330
1F
100
AcDbEntity
  8
LINIEN-DÜNN
100
AcDbLine
 10
230.0
 20
292.0
 30
0.0
 11
230.0
 21
297.0
 31
0.0
  0
LINE
  5
11D
330
1F
100
AcDbEntity
  8
LINIEN-NORMAL
100
AcDbLine
 10
296.6
 20
55.0
 30
0.0
 11
296.6
 21
35.0
 31
0.0
  0
LINE
  5
11E
330
1F
100
AcDbEntity
  8
LINIEN-DÜNN
100
AcDbLine
 10
410.0
 20
98.5
 30
0.0
 11
415.0
 21
98.5
 31
0.0
  0
LINE
  5
11F
330
1F
100
AcDbEntity
  8
VORLAGE_BEMASSUNG
100
AcDbLine
 10
230.0
 20
5.0
 30
0.0
 11
230.0
 21
0.0
 31
0.0
  0
LINE
  5
120
330
1F
100
AcDbEntity
  8
LINIEN-DÜNN
100
AcDbLine
 10
125.0
 20
292.0
 30
0.0
 11
125.0
 21
297.0
 31
0.0
  0
LINE
  5
121
330
1F
100
AcDbEntity
  8
LINIEN-DÜNN
100
AcDbLine
 10
125.0
 20
5.0
 30
0.0
 11
125.0
 21
0.0
 31
0.0
  0
LINE
  5
122
330
1F
100
AcDbEntity
  8
LINIEN-NORMAL
100
AcDbLine
 10
410.0
 20
55.0
 30
0.0
 11
228.0
 21
55.0
 31
0.0
  0
LINE
  5
123
330
1F
100
AcDbEntity
  8
LINIEN-DÜNN
100
AcDbLine
 10
228.0
 20
55.0
 30
0.0
 11
410.0
 21
55.0
 31
0.0
  0
LINE
  5
124
330
1F
100
AcDbEntity
  8
LINIEN-DÜNN
100
AcDbLine
 10
410.0
 20
55.0
 30
0.0
 11
228.0
 21
55.0
 31
0.0
  0
LINE
  5
125
330
1F
100
AcDbEntity
  8
LINIEN-DÜNN
100
AcDbLine
 10
268.0
 20
76.5
 30
0.0
 11
268.0
 21
55.0
 31
0.0
  0
LINE
  5
126
330
1F
100
AcDbEntity
  8
LINIEN-DÜNN
100
AcDbLine
 10
271.6
 20
55.0
 30
0.0
 11
271.6
 21
40.0
 31
0.0
  0
LINE
  5
127
330
1F
100
AcDbEntity
  8
LINIEN-DÜNN
100
AcDbLine
 10
247.0
 20
55.0
 30
0.0
 11
247.0
 21
35.0
 31
0.0
  0
LINE
  5
128
330
1F
100
AcDbEntity
  8
LINIEN-DICK
100
AcDbLine
 10
228.0
 20
76.5
 30
0.0
 11
228.0
 21
10.0
 31
0.0
  0
LINE
  5
129
330
1F
100
AcDbEntity
  8
LINIEN-DÜNN
100
AcDbLine
 10
15.0
 20
292.0
 30
0.0
 11
415.0
 21
292.0
 31
0.0
  0
LINE
  5
12A
330
1F
100
AcDbEntity
  8
LINIEN-DÜNN
100
AcDbLine
 10
228.0
 20
65.75
 30
0.0
 11
310.0
 21
65.75
 31
0.0
  0
LINE
  5
12B
330
1F
100
AcDbEntity
  8
LINIEN-DICK
100
AcDbLine
 10
228.0
 20
76.5
 30
0.0
 11
410.0
 21
76.5
 31
0.0
  0
LINE
  5
12C
330
1F
100
AcDbEntity
  8
LINIEN-DÜNN
100
AcDbLine
 10
15.0
 20
48.5
 30
0.0
 11
20.0
 21
48.5
 31
0.0
  0
LINE
  5
12D
330
1F
100
AcDbEntity
  8
LINIEN-DÜNN
100
AcDbLine
 10
410.0
 20
48.5
 30
0.0
 11
415.0
 21
48.5
 31
0.0
  0
LINE
  5
12E
330
1F
100
AcDbEntity
  8
LINIEN-DÜNN
100
AcDbLine
 10
332.6610845472
 20
20.0
 30
0.0
 11
332.6610845472
 21
10.0
 31
0.0
  0
LINE
  5
12F
330
1F
100
AcDbEntity
  8
LINIEN-DÜNN
100
AcDbLine
 10
410.0
 20
248.5
 30
0.0
 11
415.0
 21
248.5
 31
0.0
  0
LINE
  5
130
330
1F
100
AcDbEntity
  8
LINIEN-DÜNN
100
AcDbLine
 10
65.0
 20
10.0
 30
0.0
 11
65.0
 21
5.0
 31
0.0
  0
LINE
  5
131
330
1F
100
AcDbEntity
  8
LINIEN-DÜNN
100
AcDbLine
 10
115.0
 20
10.0
 30
0.0
 11
115.0
 21
5.0
 31
0.0
  0
LINE
  5
132
330
1F
100
AcDbEntity
  8
LINIEN-DÜNN
100
AcDbLine
 10
115.0
 20
292.0
 30
0.0
 11
115.0
 21
287.0
 31
0.0
  0
LINE
  5
133
330
1F
100
AcDbEntity
  8
LINIEN-DÜNN
100
AcDbLine
 10
165.0
 20
10.0
 30
0.0
 11
165.0
 21
5.0
 31
0.0
  0
LINE
  5
134
330
1F
100
AcDbEntity
  8
LINIEN-DÜNN
100
AcDbLine
 10
165.0
 20
292.0
 30
0.0
 11
165.0
 21
287.0
 31
0.0
  0
LINE
  5
135
330
1F
100
AcDbEntity
  8
LINIEN-DÜNN
100
AcDbLine
 10
215.0
 20
10.0
 30
0.0
 11
215.0
 21
5.0
 31
0.0
  0
LINE
  5
136
330
1F
100
AcDbEntity
  8
LINIEN-DÜNN
100
AcDbLine
 10
215.0
 20
292.0
 30
0.0
 11
215.0
 21
287.0
 31
0.0
  0
LINE
  5
137
330
1F
100
AcDbEntity
  8
LINIEN-DÜNN
100
AcDbLine
 10
265.0
 20
10.0
 30
0.0
 11
265.0
 21
5.0
 31
0.0
  0
LINE
  5
138
330
1F
100
AcDbEntity
  8
LINIEN-DÜNN
100
AcDbLine
 10
265.0
 20
292.0
 30
0.0
 11
265.0
 21
287.0
 31
0.0
  0
LINE
  5
139
330
1F
100
AcDbEntity
  8
LINIEN-DÜNN
100
AcDbLine
 10
347.6610845472
 20
20.0
 30
0.0
 11
347.6610845472
 21
10.0
 31
0.0
  0
LINE
  5
13A
330
1F
100
AcDbEntity
  8
LINIEN-DÜNN
100
AcDbLine
 10
362.6610845472
 20
20.0
 30
0.0
 11
362.6610845472
 21
10.0
 31
0.0
  0
LINE
  5
13B
330
1F
100
AcDbEntity
  8
LINIEN-NORMAL
100
AcDbLine
 10
327.6610845472
 20
10.0
 30
0.0
 11
327.6610845472
 21
55.0
 31
0.0
  0
LINE
  5
13C
330
1F
100
AcDbEntity
  8
LINIEN-DÜNN
100
AcDbLine
 10
20.0
 20
292.0
 30
0.0
 11
20.0
 21
297.0
 31
0.0
  0
LINE
  5
13D
330
1F
100
AcDbEntity
  8
LINIEN-DÜNN
100
AcDbLine
 10
20.0
 20
5.0
 30
0.0
 11
20.0
 21
0.0
 31
0.0
  0
LINE
  5
13E
330
1F
100
AcDbEntity
  8
LINIEN-DÜNN
100
AcDbLine
 10
315.0
 20
10.0
 30
0.0
 11
315.0
 21
5.0
 31
0.0
  0
LINE
  5
13F
330
1F
100
AcDbEntity
  8
LINIEN-DÜNN
100
AcDbLine
 10
315.0
 20
292.0
 30
0.0
 11
315.0
 21
287.0
 31
0.0
  0
LINE
  5
140
330
1F
100
AcDbEntity
  8
LINIEN-DÜNN
100
AcDbLine
 10
365.0
 20
10.0
 30
0.0
 11
365.0
 21
5.0
 31
0.0
  0
LINE
  5
141
330
1F
100
AcDbEntity
  8
LINIEN-DÜNN
100
AcDbLine
 10
365.0
 20
292.0
 30
0.0
 11
365.0
 21
287.0
 31
0.0
  0
LINE
  5
142
330
1F
100
AcDbEntity
  8
LINIEN-DÜNN
100
AcDbLine
 10
15.0
 20
292.0
 30
0.0
 11
15.0
 21
5.0
 31
0.0
  0
LINE
  5
143
330
1F
100
AcDbEntity
  8
LINIEN-DÜNN
100
AcDbLine
 10
15.0
 20
5.0
 30
0.0
 11
415.0
 21
5.0
 31
0.0
  0
LINE
  5
144
330
1F
100
AcDbEntity
  8
LINIEN-DÜNN
100
AcDbLine
 10
415.0
 20
292.0
 30
0.0
 11
415.0
 21
5.0
 31
0.0
  0
LINE
  5
145
330
1F
100
AcDbEntity
  8
LINIEN-DÜNN
100
AcDbLine
 10
347.6610845472
 20
44.213444
 30
0.0
 11
327.6610845472
 21
44.213444
 31
0.0
  0
LINE
  5
146
330
1F
100
AcDbEntity
  8
LINIEN-DÜNN
100
AcDbLine
 10
347.6610845472
 20
35.0
 30
0.0
 11
347.6610845472
 21
55.0
 31
0.0
  0
LINE
  5
147
330
1F
100
AcDbEntity
  8
LINIEN-DÜNN
100
AcDbLine
 10
370.057188
 20
55.012032
 30
0.0
 11
370.057188
 21
35.0
 31
0.0
  0
LINE
  5
148
330
1F
100
AcDbEntity
  8
LINIEN-DÜNN
100
AcDbLine
 10
398.0
 20
35.0
 30
0.0
 11
398.0
 21
20.0
 31
0.0
  0
LINE
  5
149
330
1F
100
AcDbEntity
  8
LINIEN-DÜNN
100
AcDbLine
 10
410.0
 20
15.0
 30
0.0
 11
327.6610845472
 21
15.0
 31
0.0
  0
LINE
  5
14A
330
1F
100
AcDbEntity
  8
LINIEN-DÜNN
100
AcDbLine
 10
327.6610845472
 20
20.0
 30
0.0
 11
410.0
 21
20.0
 31
0.0
  0
LINE
  5
14B
330
1F
100
AcDbEntity
  8
LINIEN-DÜNN
100
AcDbLine
 10
341.485486
 20
20.0
 30
0.0
 11
341.485486
 21
27.564675
 31
0.0
  0
LINE
  5
14C
330
1F
100
AcDbEntity
  8
LINIEN-NORMAL
100
AcDbLine
 10
310.0
 20
76.5
 30
0.0
 11
310.0
 21
55.0
 31
0.0
  0
CIRCLE
  5
14D
330
1F
100
AcDbEntity
  8
LINIEN-DÜNN
100
AcDbCircle
 10
11.0
 20
108.5
 30
0.0
 40
2.750000000000001
  0
CIRCLE
  5
14E
330
1F
100
AcDbEntity
  8
LINIEN-DÜNN
100
AcDbCircle
 10
11.0
 20
188.5
 30
0.0
 40
2.750000000000001
  0
CIRCLE
  5
14F
330
1F
100
AcDbEntity
  8
LINIEN-DÜNN
100
AcDbCircle
 10
352.6174545849
 20
43.1536640226
 30
0.0
 40
3.218346681300138
  0
CIRCLE
  5
150
330
1F
100
AcDbEntity
  8
LINIEN-DÜNN
100
AcDbCircle
 10
352.6174545849
 20
43.1536640226
 30
0.0
 40
1.583958554121555
  0
INSERT
  5
151
330
1F
100
AcDbEntity
  8
0
  6
Continuous
 62
     7
100
AcDbBlockReference
  2
ACO-Logo
 10
314.3510726297
 20
57.6366106772
 30
0.0
  0
POINT
  5
152
330
1F
100
AcDbEntity
  8
VORLAGE_BEMASSUNG
100
AcDbPoint
 10
0.0
 20
0.0
 30
0.0
  0
POINT
  5
153
330
1F
100
AcDbEntity
  8
VORLAGE_BEMASSUNG
100
AcDbPoint
 10
410.0
 20
10.0
 30
0.0
  0
MTEXT
  5
154
330
1F
100
AcDbEntity
  8
VORLAGE_TEXT
100
AcDbMText
 10
17.7359443114
 20
124.8017866468
 30
0.0
 40
2.0
 41
0.0
 71
     2
 72
     1
  1
D
  7
SLDTEXTSTYLE0
 73
     1
 44
1.0
  0
MTEXT
  5
155
330
1F
100
AcDbEntity
  8
VORLAGE_TEXT
100
AcDbMText
 10
17.6274822413
 20
174.7261854936
 30
0.0
 40
2.0
 41
0.0
 71
     2
 72
     1
  1
C
  7
SLDTEXTSTYLE0
 73
     1
 44
1.0
  0
MTEXT
  5
156
330
1F
100
AcDbEntity
  8
VORLAGE_TEXT
100
AcDbMText
 10
17.5516905072
 20
224.4926420442
 30
0.0
 40
2.0
 41
0.0
 71
     2
 72
     1
  1
B
  7
SLDTEXTSTYLE0
 73
     1
 44
1.0
  0
MTEXT
  5
157
330
1F
100
AcDbEntity
  8
VORLAGE_TEXT
100
AcDbMText
 10
290.0344258799
 20
290.5428789914
 30
0.0
 40
2.0
 41
0.0
 71
     2
 72
     1
  1
6
  7
SLDTEXTSTYLE0
 73
     1
 44
1.0
  0
MTEXT
  5
158
330
1F
100
AcDbEntity
  8
VORLAGE_TEXT
100
AcDbMText
 10
240.0417859812
 20
290.6369260235
 30
0.0
 40
2.0
 41
0.0
 71
     2
 72
     1
  1
5
  7
SLDTEXTSTYLE0
 73
     1
 44
1.0
  0
MTEXT
  5
159
330
1F
100
AcDbEntity
  8
VORLAGE_TEXT
100
AcDbMText
 10
190.0300404524
 20
290.6343268032
 30
0.0
 40
2.0
 41
0.0
 71
     2
 72
     1
  1
4
  7
SLDTEXTSTYLE0
 73
     1
 44
1.0
  0
MTEXT
  5
15A
330
1F
100
AcDbEntity
  8
VORLAGE_TEXT
100
AcDbMText
 10
140.0165868337
 20
290.6378887952
 30
0.0
 40
2.0
 41
0.0
 71
     2
 72
     1
  1
3
  7
SLDTEXTSTYLE0
 73
     1
 44
1.0
  0
MTEXT
  5
15B
330
1F
100
AcDbEntity
  8
VORLAGE_TEXT
100
AcDbMText
 10
90.033223
 20
290.5566702875
 30
0.0
 40
2.0
 41
0.0
 71
     2
 72
     1
  1
2
  7
SLDTEXTSTYLE0
 73
     1
 44
1.0
  0
MTEXT
  5
15C
330
1F
100
AcDbEntity
  8
VORLAGE_TEXT
100
AcDbMText
 10
40.0509551097
 20
290.5530165805
 30
0.0
 40
2.0
 41
0.0
 71
     2
 72
     1
  1
1
  7
SLDTEXTSTYLE0
 73
     1
 44
1.0
  0
MTEXT
  5
15D
330
1F
100
AcDbEntity
  8
VORLAGE_TEXT
100
AcDbMText
 10
17.5609786315
 20
271.2966048816
 30
0.0
 40
2.0
 41
0.0
 71
     2
 72
     1
  1
A
  7
SLDTEXTSTYLE0
 73
     1
 44
1.0
  0
MTEXT
  5
15E
330
1F
100
AcDbEntity
  8
VORLAGE_TEXT
100
AcDbMText
 10
89.9333968896
 20
8.5904490253
 30
0.0
 40
2.0
 41
0.0
 71
     2
 72
     1
  1
2
  7
SLDTEXTSTYLE0
 73
     1
 44
1.0
  0
MTEXT
  5
15F
330
1F
100
AcDbEntity
  8
VORLAGE_TEXT
100
AcDbMText
 10
39.9009486579
 20
8.6623118453
 30
0.0
 40
2.0
 41
0.0
 71
     2
 72
     1
  1
1
  7
SLDTEXTSTYLE0
 73
     1
 44
1.0
  0
MTEXT
  5
160
330
1F
100
AcDbEntity
  8
VORLAGE_TEXT
100
AcDbMText
 10
190.0227230239
 20
8.7073169286
 30
0.0
 40
2.0
 41
0.0
 71
     2
 72
     1
  1
4
  7
SLDTEXTSTYLE0
 73
     1
 44
1.0
  0
MTEXT
  5
161
330
1F
100
AcDbEntity
  8
VORLAGE_TEXT
100
AcDbMText
 10
140.0453427777
 20
8.5647154541
 30
0.0
 40
2.0
 41
0.0
 71
     2
 72
     1
  1
3
  7
SLDTEXTSTYLE0
 73
     1
 44
1.0
  0
MTEXT
  5
162
330
1F
100
AcDbEntity
  8
VORLAGE_TEXT
100
AcDbMText
 10
239.8749782531
 20
8.5637526825
 30
0.0
 40
2.0
 41
0.0
 71
     2
 72
     1
  1
5
  7
SLDTEXTSTYLE0
 73
     1
 44
1.0
  0
MTEXT
  5
163
330
1F
100
AcDbEntity
  8
VORLAGE_TEXT
100
AcDbMText
 10
412.6717254925
 20
224.51208263
 30
0.0
 40
2.0
 41
0.0
 71
     2
 72
     1
  1
B
  7
SLDTEXTSTYLE0
 73
     1
 44
1.0
  0
MTEXT
  5
164
330
1F
100
AcDbEntity
  8
VORLAGE_TEXT
100
AcDbMText
 10
412.5951211154
 20
271.2798202564
 30
0.0
 40
2.0
 41
0.0
 71
     2
 72
     1
  1
A
  7
SLDTEXTSTYLE0
 73
     1
 44
1.0
  0
MTEXT
  5
165
330
1F
100
AcDbEntity
  8
VORLAGE_TEXT
100
AcDbMText
 10
412.6491448679
 20
174.7279841048
 30
0.0
 40
2.0
 41
0.0
 71
     2
 72
     1
  1
C
  7
SLDTEXTSTYLE0
 73
     1
 44
1.0
  0
MTEXT
  5
166
330
1F
100
AcDbEntity
  8
VORLAGE_TEXT
100
AcDbMText
 10
340.0216466634
 20
290.5954278102
 30
0.0
 40
2.0
 41
0.0
 71
     2
 72
     1
  1
7
  7
SLDTEXTSTYLE0
 73
     1
 44
1.0
  0
MTEXT
  5
167
330
1F
100
AcDbEntity
  8
VORLAGE_TEXT
100
AcDbMText
 10
390.037657264
 20
290.6215496941
 30
0.0
 40
2.0
 41
0.0
 71
     2
 72
     1
  1
8
  7
SLDTEXTSTYLE0
 73
     1
 44
1.0
  0
MTEXT
  5
168
330
1F
100
AcDbEntity
  8
VORLAGE_TEXT
100
AcDbMText
 10
17.6897935208
 20
74.7267628143
 30
0.0
 40
2.0
 41
0.0
 71
     2
 72
     1
  1
E
  7
SLDTEXTSTYLE0
 73
     1
 44
1.0
  0
MTEXT
  5
169
330
1F
100
AcDbEntity
  8
VORLAGE_TEXT
100
AcDbMText
 10
17.5936930126
 20
27.773321616
 30
0.0
 40
2.0
 41
0.0
 71
     2
 72
     1
  1
F
  7
SLDTEXTSTYLE0
 73
     1
 44
1.0
  0
MTEXT
  5
16A
330
1F
100
AcDbEntity
  8
VORLAGE_TEXT
100
AcDbMText
 10
339.8003474583
 20
8.7205095051
 30
0.0
 40
2.0
 41
0.0
 71
     2
 72
     1
  1
7
  7
SLDTEXTSTYLE0
 73
     1
 44
1.0
  0
MTEXT
  5
16B
330
1F
100
AcDbEntity
  8
VORLAGE_TEXT
100
AcDbMText
 10
289.7886477179
 20
8.6884673623
 30
0.0
 40
2.0
 41
0.0
 71
     2
 72
     1
  1
6
  7
SLDTEXTSTYLE0
 73
     1
 44
1.0
  0
MTEXT
  5
16C
330
1F
100
AcDbEntity
  8
VORLAGE_TEXT
100
AcDbMText
 10
412.5160699095
 20
74.5096307526
 30
0.0
 40
2.0
 41
0.0
 71
     2
 72
     1
  1
E
  7
SLDTEXTSTYLE0
 73
     1
 44
1.0
  0
MTEXT
  5
16D
330
1F
100
AcDbEntity
  8
VORLAGE_TEXT
100
AcDbMText
 10
412.6234021365
 20
124.4517683275
 30
0.0
 40
2.0
 41
0.0
 71
     2
 72
     1
  1
D
  7
SLDTEXTSTYLE0
 73
     1
 44
1.0
  0
MTEXT
  5
16E
330
1F
100
AcDbEntity
  8
TEXT-DEUTSCH
100
AcDbMText
 10
411.7952690469
 20
41.8539115219
 30
0.0
 40
1.8
 41
0.0
 71
     3
 72
     1
  1
Plotdatum: 21.09.2023
  7
SLDTEXTSTYLE0
 11
-3.269436733918102E-15
 21
1.0
 31
0.0
 73
     1
 44
1.0
  0
MTEXT
  5
16F
330
1F
100
AcDbEntity
  8
VORLAGE_TEXT
100
AcDbMText
 10
412.557933251
 20
8.2549718046
 30
0.0
 40
1.8
 41
0.0
 71
     2
 72
     1
  1
A3
  7
SLDTEXTSTYLE0
 73
     1
 44
1.0
  0
MTEXT
  5
170
330
1F
100
AcDbEntity
  8
VORLAGE_TEXT
100
AcDbMText
 10
390.594604279
 20
8.3847467643
 30
0.0
 40
1.8
 41
0.0
 71
     2
 72
     1
  1
CAD-System: SolidWorks
  7
SLDTEXTSTYLE0
 73
     1
 44
1.0
  0
MTEXT
  5
171
330
1F
100
AcDbEntity
  8
TEXT
100
AcDbMText
 10
404.0541923444
 20
28.4394692021
 30
0.0
 40
5.0
 41
0.0
 71
     2
 72
     1
  1
-
  7
SLDTEXTSTYLE0
 73
     1
 44
1.0
  0
MTEXT
  5
172
330
1F
100
AcDbEntity
  8
TEXT
100
AcDbMText
 10
249.556836311
 20
38.5581729516
 30
0.0
 40
2.0
 41
0.0
 71
     1
 72
     1
  1
Freigegeben
  7
SLDTEXTSTYLE0
 73
     1
 44
1.0
  0
MTEXT
  5
173
330
1F
100
AcDbEntity
  8
TEXT
100
AcDbMText
 10
284.0823755556
 20
43.5473338598
 30
0.0
 40
2.0
 41
0.0
 71
     2
 72
     1
  1
nae
  7
SLDTEXTSTYLE0
 73
     1
 44
1.0
  0
MTEXT
  5
174
330
1F
100
AcDbEntity
  8
TEXT
100
AcDbMText
 10
249.5284668163
 20
43.5603133928
 30
0.0
 40
2.0
 41
0.0
 71
     1
 72
     1
  1
21.09.2023
  7
SLDTEXTSTYLE0
 73
     1
 44
1.0
  0
MTEXT
  5
175
330
1F
100
AcDbEntity
  8
TEXT
100
AcDbMText
 10
284.1309088133
 20
48.5138972561
 30
0.0
 40
2.0
 41
0.0
 71
     2
 72
     1
  1
AB
  7
SLDTEXTSTYLE0
 73
     1
 44
1.0
  0
MTEXT
  5
176
330
1F
100
AcDbEntity
  8
TEXT
100
AcDbMText
 10
249.5284668163
 20
48.4989062069
 30
0.0
 40
2.0
 41
0.0
 71
     1
 72
     1
  1
15.02.2021
  7
SLDTEXTSTYLE0
 73
     1
 44
1.0
  0
MTEXT
  5
177
330
1F
100
AcDbEntity
  8
0
  6
Continuous
 62
     7
370
     0
100
AcDbMText
 10
372.2007348103
 20
38.8723054925
 30
0.0
 40
1.5
 41
0.0
 71
     1
 72
     1
  1
Copyright reserved! © ACO AG
  7
SLDTEXTSTYLE0
 73
     1
 44
1.0
  0
INSERT
  5
180
330
1F
100
AcDbEntity
  8
0
  6
Continuous
 62
     7
370
     0
100
AcDbBlockReference
  2
SW_NOTE_0_3
 10
372.2203831445
 20
51.2202922854
 30
0.0
  0
MTEXT
  5
181
330
1F
100
AcDbEntity
  8
TEXT
100
AcDbMText
 10
364.9468572407
 20
18.4594173137
 30
0.0
 40
2.0
 41
0.0
 71
     1
 72
     1
  1
Erstausgabe
  7
SLDTEXTSTYLE0
 73
     1
 44
1.0
  0
MTEXT
  5
182
330
1F
100
AcDbEntity
  8
TEXT
100
AcDbMText
 10
330.2607505021
 20
18.524501801
 30
0.0
 40
2.0
 41
0.0
 71
     2
 72
     1
  1
-
  7
SLDTEXTSTYLE0
 73
     1
 44
1.0
  0
MTEXT
  5
183
330
1F
100
AcDbEntity
  8
VORLAGE_TEXT
100
AcDbMText
 10
311.764909851
 20
46.3490312465
 30
0.0
 40
5.0
 41
0.0
 71
     2
 72
     1
  1
1:1
  7
SLDTEXTSTYLE0
 73
     1
 44
1.0
  0
MTEXT
  5
184
330
1F
100
AcDbEntity
  8
VORLAGE_TEXT
100
AcDbMText
 10
230.1851195342
 20
38.7793829468
 30
0.0
 40
2.0
 41
0.0
 71
     1
 72
     1
  1
Status:
  7
SLDTEXTSTYLE0
 73
     1
 44
1.0
  0
MTEXT
  5
185
330
1F
100
AcDbEntity
  8
TEXT
100
AcDbMText
 10
344.926838705
 20
28.2772828851
 30
0.0
 40
5.0
 41
0.0
 71
     1
 72
     1
  1
98768
  7
SLDTEXTSTYLE0
 73
     1
 44
1.0
  0
MTEXT
  5
186
330
1F
100
AcDbEntity
  8
TEXT
100
AcDbMText
 10
231.1132118803
 20
14.9211049657
 30
0.0
 40
2.5
 41
0.0
 71
     1
 72
     1
  1
Art. Nr.: 2021589
  7
SLDTEXTSTYLE0
 73
     1
 44
1.0
  0
MTEXT
  5
187
330
1F
100
AcDbEntity
  8
TEXT
100
AcDbMText
 10
231.1475981734
 20
21.4529560996
 30
0.0
 40
2.5
 41
0.0
 71
     1
 72
     1
  1
Pipe Formstücke, Bogen 30°
  7
SLDTEXTSTYLE0
 73
     1
 44
1.0
  0
MTEXT
  5
188
330
1F
100
AcDbEntity
  8
TEXT
100
AcDbMText
 10
231.1159560181
 20
33.0904969858
 30
0.0
 40
2.5
 41
0.0
 71
     1
 72
     1
  1
Haustechnik
  7
SLDTEXTSTYLE0
 73
     1
 44
1.0
  0
MTEXT
  5
189
330
1F
100
AcDbEntity
  8
TEXT
100
AcDbMText
 10
231.1475981734
 20
28.0307932366
 30
0.0
 40
3.5
 41
0.0
 71
     1
 72
     1
  1
Pipe Formstück, Bogen 30° DN70
  7
SLDTEXTSTYLE0
 73
     1
 44
1.0
  0
MTEXT
  5
18A
330
1F
100
AcDbEntity
  8
VORLAGE_TEXT
100
AcDbMText
 10
348.2746465368
 20
53.819119072
 30
0.0
 40
2.0
 41
0.0
 71
     1
 72
     1
  1
Projektion: ISO-E
  7
SLDTEXTSTYLE0
 73
     1
 44
1.0
  0
MTEXT
  5
18B
330
1F
100
AcDbEntity
  8
TEXT
100
AcDbMText
 10
337.7677091855
 20
49.3670227094
 30
0.0
 40
2.5
 41
0.0
 71
     2
 72
     1
  1
Millimeter
  7
SLDTEXTSTYLE0
 73
     1
 44
1.0
  0
MTEXT
  5
18C
330
1F
100
AcDbEntity
  8
VORLAGE_TEXT
100
AcDbMText
 10
337.6323777421
 20
53.855374072
 30
0.0
 40
2.0
 41
0.0
 71
     2
 72
     1
  1
Masseinheit:
  7
SLDTEXTSTYLE0
 73
     1
 44
1.0
  0
MTEXT
  5
18D
330
1F
100
AcDbEntity
  8
VORLAGE_TEXT
100
AcDbMText
 10
337.6114490186
 20
43.5452078816
 30
0.0
 40
2.0
 41
0.0
 71
     2
 72
     1
  1
Blatt / Anz.:
  7
SLDTEXTSTYLE0
 73
     1
 44
1.0
  0
MTEXT
  5
18E
330
1F
100
AcDbEntity
  8
VORLAGE_TEXT
100
AcDbMText
 10
329.2895578243
 20
28.4139191092
 30
0.0
 40
5.0
 41
0.0
 71
     1
 72
     1
  1
CH
  7
SLDTEXTSTYLE0
 73
     1
 44
1.0
  0
MTEXT
  5
18F
330
1F
100
AcDbEntity
  8
VORLAGE_TEXT
100
AcDbMText
 10
330.40704
 20
33.692638072
 30
0.0
 40
2.0
 41
0.0
 71
     1
 72
     1
  1
Zeichnung Nr.:
  7
SLDTEXTSTYLE0
 73
     1
 44
1.0
  0
MTEXT
  5
190
330
1F
100
AcDbEntity
  8
VORLAGE_TEXT
100
AcDbMText
 10
269.897953
 20
75.161075072
 30
0.0
 40
2.0
 41
0.0
 71
     1
 72
     1
  1
Gewicht:
  7
SLDTEXTSTYLE0
 73
     1
 44
1.0
  0
MTEXT
  5
191
330
1F
100
AcDbEntity
  8
VORLAGE_TEXT
100
AcDbMText
 10
230.0
 20
64.542328072
 30
0.0
 40
2.0
 41
0.0
 71
     1
 72
     1
  1
zul. Abweichung:
  7
SLDTEXTSTYLE0
 73
     1
 44
1.0
  0
MTEXT
  5
192
330
1F
100
AcDbEntity
  8
VORLAGE_TEXT
100
AcDbMText
 10
269.612607
 20
64.542328072
 30
0.0
 40
2.0
 41
0.0
 71
     1
 72
     1
  1
Oberfläche:
  7
SLDTEXTSTYLE0
 73
     1
 44
1.0
  0
MTEXT
  5
193
330
1F
100
AcDbEntity
  8
VORLAGE_TEXT
100
AcDbMText
 10
230.261411
 20
43.4433838912
 30
0.0
 40
2.0
 41
0.0
 71
     1
 72
     1
  1
Freigegeben:
  7
SLDTEXTSTYLE0
 73
     1
 44
1.0
  0
MTEXT
  5
194
330
1F
100
AcDbEntity
  8
VORLAGE_TEXT
100
AcDbMText
 10
230.0
 20
75.161075072
 30
0.0
 40
2.0
 41
0.0
 71
     1
 72
     1
  1
Werkstoff:
  7
SLDTEXTSTYLE0
 73
     1
 44
1.0
  0
MTEXT
  5
195
330
1F
100
AcDbEntity
  8
VORLAGE_TEXT
100
AcDbMText
 10
254.035545
 20
53.129475072
 30
0.0
 40
2.0
 41
0.0
 71
     1
 72
     1
  1
Datum:
  7
SLDTEXTSTYLE0
 73
     1
 44
1.0
  0
MTEXT
  5
196
330
1F
100
AcDbEntity
  8
VORLAGE_TEXT
100
AcDbMText
 10
279.934928
 20
53.136060072
 30
0.0
 40
2.0
 41
0.0
 71
     1
 72
     1
  1
Name:
  7
SLDTEXTSTYLE0
 73
     1
 44
1.0
  0
MTEXT
  5
197
330
1F
100
AcDbEntity
  8
VORLAGE_TEXT
100
AcDbMText
 10
312.162455406
 20
53.881591072
 30
0.0
 40
2.0
 41
0.0
 71
     2
 72
     1
  1
Massstab:
  7
SLDTEXTSTYLE0
 73
     1
 44
1.0
  0
MTEXT
  5
198
330
1F
100
AcDbEntity
  8
VORLAGE_TEXT
100
AcDbMText
 10
403.9552944035
 20
33.324874072
 30
0.0
 40
2.0
 41
0.0
 71
     2
 72
     1
  1
Index:
  7
SLDTEXTSTYLE0
 73
     1
 44
1.0
  0
MTEXT
  5
199
330
1F
100
AcDbEntity
  8
VORLAGE_TEXT
100
AcDbMText
 10
230.261411
 20
48.4499477886
 30
0.0
 40
2.0
 41
0.0
 71
     1
 72
     1
  1
Erstellt:
  7
SLDTEXTSTYLE0
 73
     1
 44
1.0
  0
MTEXT
  5
19B
330
1F
100
AcDbEntity
  8
VORLAGE_TEXT
100
AcDbMText
 10
337.6348165843
 20
39.869706576
 30
0.0
 40
2.5
 41
0.0
 71
     2
 72
     1
  1
1 / 1
  7
SLDTEXTSTYLE1
 73
     1
 44
1.0
  0
MTEXT
  5
19C
330
1F
100
AcDbEntity
  8
TEXT
100
AcDbMText
 10
269.612607
 20
60.8119428599
 30
0.0
 40
3.0
 41
0.0
 71
     1
 72
     1
  1
DIN ISO 1302
  7
SLDTEXTSTYLE0
 73
     1
 44
1.0
  0
MTEXT
  5
19D
330
1F
100
AcDbEntity
  8
TEXT
100
AcDbMText
 10
230.0
 20
60.8119428599
 30
0.0
 40
3.0
 41
0.0
 71
     1
 72
     1
  1
Norm
  7
SLDTEXTSTYLE0
 73
     1
 44
1.0
  0
MTEXT
  5
19E
330
1F
100
AcDbEntity
  8
TEXT
100
AcDbMText
 10
269.612607
 20
71.2121947186
 30
0.0
 40
3.0
 41
0.0
 71
     1
 72
     1
  1
0.31 kg
  7
SLDTEXTSTYLE0
 73
     1
 44
1.0
  0
MTEXT
  5
19F
330
1F
100
AcDbEntity
  8
TEXT
100
AcDbMText
 10
230.0
 20
71.2121947186
 30
0.0
 40
3.0
 41
0.0
 71
     1
 72
     1
  1
1.4404 / EPDM
  7
SLDTEXTSTYLE0
 73
     1
 44
1.0
  0
LINE
  5
1A0
330
1F
100
AcDbEntity
  8
0
  6
Continuous
 62
     7
370
    25
100
AcDbLine
 10
130.4092292545
 20
49.9221966777
 30
0.0
 11
186.7065376106
 21
49.9221966777
 31
0.0
  0
LINE
  5
1A1
330
1F
100
AcDbEntity
  8
0
  6
Continuous
 62
     7
370
    25
100
AcDbLine
 10
186.7065376106
 20
124.9221966777
 30
0.0
 11
130.4092292545
 21
124.9221966777
 31
0.0
  0
ARC
  5
1A2
330
1F
100
AcDbEntity
  8
0
  6
Continuous
 62
     7
370
    25
100
AcDbCircle
 10
186.9724787281
 20
115.5645865074
 30
0.0
 40
9.35393684618114
100
AcDbArc
 50
71.8975677711
 51
91.7290272552
  0
ARC
  5
1A3
330
1F
100
AcDbEntity
  8
0
  6
Continuous
 62
     7
370
    25
100
AcDbCircle
 10
186.9060050725
 20
59.5946208993
 30
0.0
 40
9.663732714498531
100
AcDbArc
 50
269.2465266302
 51
287.6635356948
  0
LINE
  5
1A4
330
1F
100
AcDbEntity
  8
0
  6
Continuous
 62
     7
370
    25
100
AcDbLine
 10
189.8178017474
 20
50.3708107456
 30
0.0
 11
194.4500950765
 21
51.7173475743
 31
0.0
  0
LINE
  5
1A5
330
1F
100
AcDbEntity
  8
0
  6
Continuous
 62
     7
370
    25
100
AcDbLine
 10
194.4500950765
 20
123.1270457812
 30
0.0
 11
189.8178017474
 21
124.4735826099
 31
0.0
  0
LINE
  5
1A6
330
1F
100
AcDbEntity
  8
0
  6
Continuous
 62
     7
370
    25
100
AcDbLine
 10
77.5493760666
 20
131.0221966777
 30
0.0
 11
65.4364659049
 21
131.0221966777
 31
0.0
  0
LINE
  5
1A7
330
1F
100
AcDbEntity
  8
0
  6
Continuous
 62
     7
370
    25
100
AcDbLine
 10
65.4364659049
 20
43.8221966777
 30
0.0
 11
77.5493760666
 21
43.8221966777
 31
0.0
  0
ARC
  5
1A8
330
1F
100
AcDbEntity
  8
0
  6
Continuous
 62
     7
370
    25
100
AcDbCircle
 10
65.4364659049
 20
128.0221966777
 30
0.0
 40
3.0
100
AcDbArc
 50
90.0
 51
161.9
  0
ARC
  5
1A9
330
1F
100
AcDbEntity
  8
0
  6
Continuous
 62
     7
370
    25
100
AcDbCircle
 10
65.4364659049
 20
46.8221966777
 30
0.0
 40
3.000000000000001
100
AcDbArc
 50
198.1
 51
270.0
  0
ARC
  5
1AA
330
1F
100
AcDbEntity
  8
0
  6
Continuous
 62
     7
370
    25
100
AcDbCircle
 10
77.5493760666
 20
128.0221966777
 30
0.0
 40
3.000000000000653
100
AcDbArc
 50
17.4
 51
90.0
  0
ARC
  5
1AB
330
1F
100
AcDbEntity
  8
0
  6
Continuous
 62
     7
370
    25
100
AcDbCircle
 10
77.5493760666
 20
46.8221966777
 30
0.0
 40
3.000000000000653
100
AcDbArc
 50
270.0
 51
342.6
  0
LINE
  5
1AC
330
1F
100
AcDbEntity
  8
0
  6
Continuous
 62
     7
370
    25
100
AcDbLine
 10
62.58491871
 20
128.9542259666
 30
0.0
 11
62.2079353147
 21
127.8008438185
 31
0.0
  0
LINE
  5
1AD
330
1F
100
AcDbEntity
  8
0
  6
Continuous
 62
     7
370
    25
100
AcDbLine
 10
62.2079353147
 20
47.043549537
 30
0.0
 11
62.58491871
 21
45.8901673888
 31
0.0
  0
LINE
  5
1AE
330
1F
100
AcDbEntity
  8
0
  6
Continuous
 62
     7
370
    25
100
AcDbLine
 10
80.4120970522
 20
45.925074301
 30
0.0
 11
80.81798937
 21
47.2202782623
 31
0.0
  0
LINE
  5
1AF
330
1F
100
AcDbEntity
  8
0
  6
Continuous
 62
     7
370
    25
100
AcDbLine
 10
80.81798937
 20
127.6241150932
 30
0.0
 11
80.4120970522
 21
128.9193190545
 31
0.0
  0
ARC
  5
1B0
330
1F
100
AcDbEntity
  8
0
  6
Continuous
 62
     7
370
    25
100
AcDbCircle
 10
60.3069038515
 20
128.4221966777
 30
0.0
 40
2.000000000001986
100
AcDbArc
 50
270.0
 51
341.9000000002
  0
ARC
  5
1B1
330
1F
100
AcDbEntity
  8
0
  6
Continuous
 62
     7
370
    25
100
AcDbCircle
 10
60.3069038515
 20
46.4221966777
 30
0.0
 40
2.000000000001984
100
AcDbArc
 50
18.0999999998
 51
90.0
  0
ARC
  5
1B2
330
1F
100
AcDbEntity
  8
0
  6
Continuous
 62
     7
370
    25
100
AcDbCircle
 10
82.726470027
 20
128.2221966777
 30
0.0
 40
2.000000000000014
100
AcDbArc
 50
197.4
 51
270.0
  0
ARC
  5
1B3
330
1F
100
AcDbEntity
  8
0
  6
Continuous
 62
     7
370
    25
100
AcDbCircle
 10
82.726470027
 20
46.6221966777
 30
0.0
 40
2.000000000000012
100
AcDbArc
 50
90.0
 51
162.6
  0
LINE
  5
1B4
330
1F
100
AcDbEntity
  8
0
  6
Continuous
 62
     7
370
    25
100
AcDbLine
 10
60.3069038515
 20
126.4221966777
 30
0.0
 11
56.4573239707
 21
126.4221966777
 31
0.0
  0
LINE
  5
1B5
330
1F
100
AcDbEntity
  8
0
  6
Continuous
 62
     7
370
    25
100
AcDbLine
 10
56.4573239707
 20
48.4221966777
 30
0.0
 11
60.3069038515
 21
48.4221966777
 31
0.0
  0
LINE
  5
1B6
330
1F
100
AcDbEntity
  8
0
  6
Continuous
 62
     7
370
    25
100
AcDbLine
 10
107.9089709666
 20
126.2221966777
 30
0.0
 11
82.726470027
 21
126.2221966777
 31
0.0
  0
LINE
  5
1B7
330
1F
100
AcDbEntity
  8
0
  6
Continuous
 62
     7
370
    25
100
AcDbLine
 10
82.726470027
 20
48.6221966777
 30
0.0
 11
107.9089709666
 21
48.6221966777
 31
0.0
  0
ARC
  5
1B8
330
1F
100
AcDbEntity
  8
0
  6
Continuous
 62
     7
370
    25
100
AcDbCircle
 10
107.9089709666
 20
123.2221966777
 30
0.0
 40
3.000000000000016
100
AcDbArc
 50
73.0
 51
90.0
  0
ARC
  5
1B9
330
1F
100
AcDbEntity
  8
0
  6
Continuous
 62
     7
370
    25
100
AcDbCircle
 10
107.9089709666
 20
51.6221966777
 30
0.0
 40
3.000000000000007
100
AcDbArc
 50
270.0
 51
287.0
  0
LINE
  5
1BA
330
1F
100
AcDbEntity
  8
0
  6
Continuous
 62
     7
370
    25
100
AcDbLine
 10
108.7860860808
 20
48.7532824099
 30
0.0
 11
112.3235909679
 21
49.8348061897
 31
0.0
  0
LINE
  5
1BB
330
1F
100
AcDbEntity
  8
0
  6
Continuous
 62
     7
370
    25
100
AcDbLine
 10
112.3235909679
 20
125.0095871658
 30
0.0
 11
108.7860860808
 21
126.0911109456
 31
0.0
  0
ARC
  5
1BC
330
1F
100
AcDbEntity
  8
0
  6
Continuous
 62
     7
370
    25
100
AcDbCircle
 10
112.9083343774
 20
126.9221966777
 30
0.0
 40
2.00000000000091
100
AcDbArc
 50
253.0
 51
270.0
  0
ARC
  5
1BD
330
1F
100
AcDbEntity
  8
0
  6
Continuous
 62
     7
370
    25
100
AcDbCircle
 10
112.9083343774
 20
47.9221966777
 30
0.0
 40
2.000000000000914
100
AcDbArc
 50
90.0
 51
107.0
  0
LINE
  5
1BE
330
1F
100
AcDbEntity
  8
0
  6
Continuous
 62
     7
370
    25
100
AcDbLine
 10
130.4092292545
 20
124.9221966777
 30
0.0
 11
112.9083343774
 21
124.9221966777
 31
0.0
  0
LINE
  5
1BF
330
1F
100
AcDbEntity
  8
0
  6
Continuous
 62
     7
370
    25
100
AcDbLine
 10
112.9083343774
 20
49.9221966777
 30
0.0
 11
130.4092292545
 21
49.9221966777
 31
0.0
  0
ELLIPSE
  5
1C0
330
1F
100
AcDbEntity
  8
0
  6
Continuous
 62
     7
370
    25
100
AcDbEllipse
 10
130.4092292545
 20
87.4221966777
 30
0.0
 11
2.842170943040401E-14
 21
37.5
 31
0.0
210
0.0
220
0.0
230
1.0
 40
0.2679491924
 41
3.141592653589791
 42
4.712388980384694
  0
ELLIPSE
  5
1C1
330
1F
100
AcDbEntity
  8
0
  6
Continuous
 62
     7
370
    25
100
AcDbEllipse
 10
130.4092292545
 20
87.4221966777
 30
0.0
 11
2.842170943040401E-14
 21
37.5
 31
0.0
210
0.0
220
0.0
230
1.0
 40
0.2679491924
 41
4.712388980384667
 42
6.283185307179586
  0
LINE
  5
1C2
330
1F
100
AcDbEntity
  8
0
  6
Continuous
 62
     7
370
    25
100
AcDbLine
 10
186.7065376106
 20
49.9221966777
 30
0.0
 11
186.7690531069
 21
49.922405115
 31
0.0
  0
LINE
  5
1C3
330
1F
100
AcDbEntity
  8
0
  6
Continuous
 62
     7
370
    25
100
AcDbLine
 10
189.8711306906
 20
124.4579238776
 30
0.0
 11
189.8178017474
 21
124.4735826099
 31
0.0
  0
LWPOLYLINE
  5
1C4
330
1F
100
AcDbEntity
  8
0
  6
Continuous
 62
     7
370
    25
100
AcDbPolyline
 90
       55
 70
   128
 43
0.0
 10
194.4500950765
 20
51.7173475743
 10
194.773928895
 20
51.8174957444
 10
195.7334484186
 20
52.1857270277
 10
196.6815929043
 20
52.6573129476
 10
197.6155812808
 20
53.2308702615
 10
198.5326739995
 20
53.9047166268
 10
199.4301810693
 20
54.676875536
 10
200.3054699474
 20
55.5450821141
 10
201.1559732607
 20
56.5067897616
 10
201.9791963363
 20
57.5591776242
 10
202.7727245193
 20
58.6991588671
 10
203.5342302547
 20
59.9233897287
 10
204.2614799149
 20
61.2282793292
 10
204.9523403515
 20
62.6100002023
 10
205.6047851517
 20
64.0644995228
 10
206.2169005825
 20
65.5875109936
 10
206.7868912039
 20
67.1745673595
 10
207.3130851353
 20
68.8210135108
 10
207.793938959
 20
70.5220201373
 10
208.2280422481
 20
72.2725978934
 10
208.6141217027
 20
74.0676120331
 10
208.9510448853
 20
75.9017974704
 10
209.2378235422
 20
77.7697742236
 10
209.4736165022
 20
79.6660631949
 10
209.6577321438
 20
81.5851022421
 10
209.7896304243
 20
83.521262493
 10
209.8689244631
 20
85.468864856
 10
209.8953816772
 20
87.4221966777
 10
209.8689244631
 20
89.3755284995
 10
209.7896304243
 20
91.3231308625
 10
209.6577321438
 20
93.2592911134
 10
209.4736165022
 20
95.1783301606
 10
209.2378235422
 20
97.0746191319
 10
208.9510448853
 20
98.942595885
 10
208.6141217027
 20
100.7767813224
 10
208.2280422481
 20
102.571795462
 10
207.793938959
 20
104.3223732182
 10
207.3130851353
 20
106.0233798447
 10
206.7868912039
 20
107.669825996
 10
206.2169005825
 20
109.2568823619
 10
205.6047851517
 20
110.7798938327
 10
204.9523403515
 20
112.2343931532
 10
204.2614799149
 20
113.6161140263
 10
203.5342302547
 20
114.9210036267
 10
202.7727245193
 20
116.1452344884
 10
201.9791963363
 20
117.2852157312
 10
201.1559732607
 20
118.3376035939
 10
200.3054699474
 20
119.2993112414
 10
199.4301810693
 20
120.1675178195
 10
198.5326739995
 20
120.9396767287
 10
197.6155812808
 20
121.613523094
 10
196.6815929043
 20
122.1870804078
 10
195.7334484186
 20
122.6586663278
 10
194.773928895
 20
123.026897611
 10
194.4500950765
 20
123.1270457812
  0
LINE
  5
1C5
330
1F
100
AcDbEntity
  8
0
  6
Continuous
 62
     7
370
    25
100
AcDbLine
 10
56.4573239707
 20
126.4221966777
 30
0.0
 11
56.4573239707
 21
48.4221966777
 31
0.0
  0
ELLIPSE
  5
1C6
330
1F
100
AcDbEntity
  8
0
  6
Continuous
 62
     7
370
    25
100
AcDbEllipse
 10
130.4092292545
 20
87.4221966777
 30
0.0
 11
0.0
 21
37.49999999999999
 31
0.0
210
0.0
220
0.0
230
1.0
 40
0.2679491924
 41
4.712388980384694
 42
6.283185307179586
  0
ELLIPSE
  5
1C7
330
1F
100
AcDbEntity
  8
0
  6
Continuous
 62
     7
370
    25
100
AcDbEllipse
 10
130.4092292545
 20
87.4221966777
 30
0.0
 11
0.0
 21
37.49999999999999
 31
0.0
210
0.0
220
0.0
230
1.0
 40
0.2679491924
 41
3.141592653589847
 42
4.712388980384721
  0
LWPOLYLINE
  5
1C8
330
1F
100
AcDbEntity
  8
0
  6
Continuous
 62
     8
370
    18
100
AcDbPolyline
 90
       60
 70
   128
 43
0.0
 10
186.7690531069
 20
49.922405115
 10
187.7044533889
 20
49.9753455899
 10
188.6995404665
 20
50.1346416699
 10
189.688978161
 20
50.3996333757
 10
190.6699618037
 20
50.7695695596
 10
191.6397106899
 20
51.2434015972
 10
192.595475961
 20
51.8197863602
 10
193.5345483966
 20
52.4970900233
 10
194.4542660938
 20
53.2733926957
 10
195.3520220128
 20
54.1464938631
 10
196.225271367
 20
55.1139186255
 10
197.0715388361
 20
56.1729247121
 10
197.8884255832
 20
57.3205102553
 10
198.673616054
 20
58.5534222991
 10
199.4248845407
 20
59.8681660204
 10
200.1401014912
 20
61.2610146352
 10
200.8172395454
 20
62.7280199628
 10
201.4543792819
 20
64.2650236173
 10
202.0497146589
 20
65.8676687947
 10
202.6015581335
 20
67.5314126233
 10
203.1083454456
 20
69.2515390403
 10
203.5686400513
 20
71.0231721605
 10
203.9811371957
 20
72.8412900975
 10
204.3446676107
 20
74.7007391983
 10
204.6582008299
 20
76.5962486525
 10
204.9208481093
 20
78.5224454326
 10
205.1318649467
 20
80.4738695245
 10
205.2906531919
 20
82.4449894046
 10
205.3967627424
 20
84.4302177195
 10
205.4498928192
 20
86.4239271238
 10
205.4498928192
 20
88.4204662317
 10
205.3967627424
 20
90.414175636
 10
205.2906531919
 20
92.3994039509
 10
205.1318649467
 20
94.370523831
 10
204.9208481093
 20
96.3219479229
 10
204.6582008299
 20
98.248144703
 10
204.3446676107
 20
100.1436541572
 10
203.9811371957
 20
102.003103258
 10
203.5686400513
 20
103.8212211949
 10
203.1083454456
 20
105.5928543152
 10
202.6015581335
 20
107.3129807322
 10
202.0497146589
 20
108.9767245608
 10
201.4543792819
 20
110.5793697382
 10
200.8172395454
 20
112.1163733927
 10
200.1401014912
 20
113.5833787203
 10
199.4248845407
 20
114.9762273351
 10
198.673616054
 20
116.2909710564
 10
197.8884255832
 20
117.5238831002
 10
197.0715388361
 20
118.6714686433
 10
196.225271367
 20
119.73047473
 10
195.3520220128
 20
120.6978994924
 10
194.4542660938
 20
121.5710006598
 10
193.5345483966
 20
122.3473033322
 10
192.595475961
 20
123.0246069953
 10
191.6397106899
 20
123.6009917583
 10
190.6699618037
 20
124.0748237959
 10
189.688978161
 20
124.4447599798
 10
188.6995404665
 20
124.7097516856
 10
187.7044533889
 20
124.8690477656
 10
186.7065376106
 20
124.9221966777
  0
LWPOLYLINE
  5
1C9
330
1F
100
AcDbEntity
  8
0
  6
Continuous
 62
     8
370
    18
100
AcDbPolyline
 90
       56
 70
   128
 43
0.0
 10
189.8368578373
 20
50.3763700782
 10
190.1029570485
 20
50.4581933039
 10
191.0823890339
 20
50.8275443463
 10
192.0506040332
 20
51.3006269066
 10
193.0048575358
 20
51.876099981
 10
193.9424446065
 20
52.5523323284
 10
194.8607075529
 20
53.3274070947
 10
195.7570434589
 20
54.1991272465
 10
196.628911563
 20
55.1650217981
 10
197.4738404603
 20
56.2223528165
 10
198.289435108
 20
57.3681231821
 10
199.0733836146
 20
58.5990850843
 10
199.8234637927
 20
59.9117492278
 10
200.5375494588
 20
61.3023947236
 10
201.2136164592
 20
62.7670796358
 10
201.8497484087
 20
64.3016521559
 10
202.4441421222
 20
65.9017623715
 10
202.995112726
 20
67.5628745962
 10
203.5010984343
 20
69.280280227
 10
203.9606649754
 20
71.0491110911
 10
204.3725096581
 20
72.8643532451
 10
204.7354650639
 20
74.720861188
 10
205.0485023562
 20
76.6133724463
 10
205.3107341969
 20
78.5365224912
 10
205.5214172614
 20
80.484859945
 10
205.6799543455
 20
82.4528620335
 10
205.7858960587
 20
84.4349502409
 10
205.8389420976
 20
86.4255061229
 10
205.8389420976
 20
88.4188872326
 10
205.7858960587
 20
90.4094431146
 10
205.6799543455
 20
92.391531322
 10
205.5214172614
 20
94.3595334105
 10
205.3107341969
 20
96.3078708643
 10
205.0485023562
 20
98.2310209092
 10
204.7354650639
 20
100.1235321675
 10
204.3725096581
 20
101.9800401104
 10
203.9606649754
 20
103.7952822644
 10
203.5010984343
 20
105.5641131285
 10
202.995112726
 20
107.2815187593
 10
202.4441421222
 20
108.942630984
 10
201.8497484087
 20
110.5427411996
 10
201.2136164592
 20
112.0773137197
 10
200.5375494588
 20
113.5419986319
 10
199.8234637927
 20
114.9326441277
 10
199.0733836146
 20
116.2453082712
 10
198.289435108
 20
117.4762701734
 10
197.4738404603
 20
118.622040539
 10
196.628911563
 20
119.6793715574
 10
195.7570434589
 20
120.645266109
 10
194.8607075529
 20
121.5169862607
 10
193.9424446065
 20
122.2920610271
 10
193.0048575358
 20
122.9682933745
 10
192.0506040332
 20
123.5437664488
 10
191.0823890339
 20
124.0168490092
 10
190.1029570485
 20
124.3862000516
 10
189.8711306906
 20
124.4579238776
  0
LINE
  5
1CA
330
1F
100
AcDbEntity
  8
0
  6
Continuous
 62
     8
370
    18
100
AcDbLine
 10
65.4364659049
 20
131.0221966777
 30
0.0
 11
65.4364659049
 21
43.8221966777
 31
0.0
  0
LINE
  5
1CB
330
1F
100
AcDbEntity
  8
0
  6
Continuous
 62
     8
370
    18
100
AcDbLine
 10
77.5493760666
 20
131.0221966777
 30
0.0
 11
77.5493760666
 21
43.8221966777
 31
0.0
  0
LINE
  5
1CC
330
1F
100
AcDbEntity
  8
0
  6
Continuous
 62
     8
370
    18
100
AcDbLine
 10
62.58491871
 20
128.9542259666
 30
0.0
 11
62.58491871
 21
45.8901673888
 31
0.0
  0
LINE
  5
1CD
330
1F
100
AcDbEntity
  8
0
  6
Continuous
 62
     8
370
    18
100
AcDbLine
 10
80.4120970522
 20
128.9193190545
 30
0.0
 11
80.4120970522
 21
45.925074301
 31
0.0
  0
LINE
  5
1CE
330
1F
100
AcDbEntity
  8
0
  6
Continuous
 62
     8
370
    18
100
AcDbLine
 10
62.2079353147
 20
127.8008438185
 30
0.0
 11
62.2079353147
 21
47.043549537
 31
0.0
  0
LINE
  5
1CF
330
1F
100
AcDbEntity
  8
0
  6
Continuous
 62
     8
370
    18
100
AcDbLine
 10
80.81798937
 20
47.2202782623
 30
0.0
 11
80.81798937
 21
127.6241150932
 31
0.0
  0
LINE
  5
1D0
330
1F
100
AcDbEntity
  8
0
  6
Continuous
 62
     8
370
    18
100
AcDbLine
 10
60.3069038515
 20
48.4221966777
 30
0.0
 11
60.3069038515
 21
126.4221966777
 31
0.0
  0
LINE
  5
1D1
330
1F
100
AcDbEntity
  8
0
  6
Continuous
 62
     8
370
    18
100
AcDbLine
 10
82.726470027
 20
126.2221966777
 30
0.0
 11
82.726470027
 21
48.6221966777
 31
0.0
  0
LINE
  5
1D2
330
1F
100
AcDbEntity
  8
0
  6
Continuous
 62
     8
370
    18
100
AcDbLine
 10
107.9089709666
 20
48.6221966777
 30
0.0
 11
107.9089709666
 21
126.2221966777
 31
0.0
  0
LINE
  5
1D3
330
1F
100
AcDbEntity
  8
0
  6
Continuous
 62
     8
370
    18
100
AcDbLine
 10
108.7860860808
 20
48.7532824099
 30
0.0
 11
108.7860860808
 21
126.0911109456
 31
0.0
  0
LINE
  5
1D4
330
1F
100
AcDbEntity
  8
0
  6
Continuous
 62
     8
370
    18
100
AcDbLine
 10
112.3235909679
 20
49.8348061897
 30
0.0
 11
112.3235909679
 21
125.0095871658
 31
0.0
  0
LINE
  5
1D5
330
1F
100
AcDbEntity
  8
0
  6
Continuous
 62
     8
370
    18
100
AcDbLine
 10
112.9083343774
 20
124.9221966777
 30
0.0
 11
112.9083343774
 21
49.9221966777
 31
0.0
  0
LINE
  5
1D6
330
1F
100
AcDbEntity
  8
0
  6
CENTER
 62
     7
370
    18
100
AcDbLine
 10
216.348372093
 20
87.4221966777
 30
0.0
 11
49.9494352159
 21
87.4221966777
 31
0.0
  0
LINE
  5
1D7
330
1F
100
AcDbEntity
  8
0
  6
Continuous
 62
     7
370
    18
100
AcDbLine
 10
214.348372093
 20
79.8221966777
 30
0.0
 11
214.348372093
 21
87.4221966777
 31
0.0
  0
SOLID
  5
1D8
330
1F
100
AcDbEntity
  8
0
  6
Continuous
 62
     7
370
    18
100
AcDbTrace
 10
214.348372093
 20
87.4221966777
 30
0.0
 11
213.548372093
 21
82.4221966777
 31
0.0
 12
215.148372093
 22
82.4221966777
 32
0.0
 13
215.148372093
 23
82.4221966777
 33
0.0
  0
LINE
  5
1D9
330
1F
100
AcDbEntity
  8
0
  6
Continuous
 62
     7
370
    18
100
AcDbLine
 10
51.9494352159
 20
79.8221966777
 30
0.0
 11
51.9494352159
 21
87.4221966777
 31
0.0
  0
SOLID
  5
1DA
330
1F
100
AcDbEntity
  8
0
  6
Continuous
 62
     7
370
    18
100
AcDbTrace
 10
51.9494352159
 20
87.4221966777
 30
0.0
 11
51.1494352159
 21
82.4221966777
 31
0.0
 12
52.7494352159
 22
82.4221966777
 32
0.0
 13
52.7494352159
 23
82.4221966777
 33
0.0
  0
MTEXT
  5
1DB
330
1F
100
AcDbEntity
  8
0
  6
Continuous
 62
     7
100
AcDbMText
 10
212.0832148334
 20
78.6970640705
 30
0.0
 40
5.0
 41
0.0
 71
     1
 72
     1
  1
A
  7
SLDTEXTSTYLE0
 73
     1
 44
1.0
  0
MTEXT
  5
1DC
330
1F
100
AcDbEntity
  8
0
  6
Continuous
 62
     7
100
AcDbMText
 10
49.5875372853
 20
78.4376481807
 30
0.0
 40
5.0
 41
0.0
 71
     1
 72
     1
  1
A
  7
SLDTEXTSTYLE0
 73
     1
 44
1.0
  0
LWPOLYLINE
  5
1DD
330
1F
100
AcDbEntity
  8
0
  6
Continuous
 62
     7
370
    25
100
AcDbPolyline
 90
       33
 70
   128
 43
0.0
 10
345.0253430228
 20
115.7845328259
 10
344.5660843936
 20
115.6540226809
 10
343.9669374419
 20
115.5377013409
 10
343.2392645203
 20
115.4684998056
 10
342.4731227413
 20
115.4719984597
 10
341.3383111895
 20
115.6055622104
 10
340.2371566994
 20
115.8674976899
 10
339.1847323711
 20
116.2299687022
 10
338.1898903553
 20
116.6680940688
 10
336.8451056645
 20
117.4032033192
 10
335.4438561353
 20
118.3426961841
 10
334.00475472
 20
119.4967464302
 10
332.5506456298
 20
120.870925795
 10
331.1086165824
 20
122.4651462038
 10
329.7119708242
 20
124.2696200598
 10
328.7255595343
 20
125.7350865226
 10
327.8081364404
 20
127.2805488599
 10
326.9719546689
 20
128.8928691157
 10
326.2290141569
 20
130.557288579
 10
325.5908718961
 20
132.2575119834
 10
325.068442143
 20
133.9758243271
 10
324.6717892419
 20
135.6932416091
 10
324.4099162156
 20
137.3896961908
 10
324.2918132135
 20
139.0011677013
 10
324.3081431028
 20
140.444507586
 10
324.4342893724
 20
141.7191009526
 10
324.6463333196
 20
142.8302092245
 10
325.0240252283
 20
144.0729425213
 10
325.473544449
 20
145.0819595371
 10
326.0451998579
 20
146.0093312803
 10
326.4617420485
 20
146.5314684224
 10
326.9609146881
 20
147.0385916868
 10
326.9733700897
 20
147.0485130193
  0
ARC
  5
1DE
330
1F
100
AcDbEntity
  8
0
  6
Continuous
 62
     7
370
    25
100
AcDbCircle
 10
359.2712052554
 20
144.8315911501
 30
0.0
 40
32.4034186946228
100
AcDbArc
 50
188.1361232024
 51
231.3651366078
  0
LWPOLYLINE
  5
1DF
330
1F
100
AcDbEntity
  8
0
  6
Continuous
 62
     7
370
    25
100
AcDbPolyline
 90
       26
 70
   128
 43
0.0
 10
345.8094629407
 20
117.5006515093
 10
345.7014658762
 20
117.4840166271
 10
344.7192973379
 20
117.4735968409
 10
343.793379285
 20
117.5740280386
 10
342.9393272481
 20
117.7524395858
 10
342.1485017262
 20
117.9859463212
 10
341.3591976366
 20
118.2812243553
 10
339.7826113943
 20
119.0493724089
 10
338.2307060392
 20
120.0327651443
 10
336.7274981648
 20
121.2038853762
 10
335.294085899
 20
122.5340298747
 10
333.9485006834
 20
123.9940434312
 10
332.7056496653
 20
125.5549767444
 10
331.5628567015
 20
127.2113966087
 10
330.5203876056
 20
128.9630372755
 10
329.5945874798
 20
130.7876534786
 10
328.8006533205
 20
132.6612215348
 10
328.152351537
 20
134.5582254273
 10
327.6617431106
 20
136.4519829789
 10
327.3389140414
 20
138.3150207277
 10
327.1914869171
 20
140.1198977088
 10
327.2249951151
 20
141.8387680853
 10
327.442521451
 20
143.4439066271
 10
327.8443239848
 20
144.9084915553
 10
328.427721691
 20
146.2070997994
 10
328.8613568074
 20
146.8737492356
  0
LINE
  5
1E0
330
1F
100
AcDbEntity
  8
0
  6
Continuous
 62
     7
370
    25
100
AcDbLine
 10
363.4719277999
 20
125.6245314278
 30
0.0
 11
377.4674502658
 21
124.3699749269
 31
0.0
  0
LINE
  5
1E1
330
1F
100
AcDbEntity
  8
0
  6
Continuous
 62
     7
370
    25
100
AcDbLine
 10
380.8155200875
 20
161.7202149324
 30
0.0
 11
358.0218517486
 21
163.7634358885
 31
0.0
  0
ARC
  5
1E2
330
1F
100
AcDbEntity
  8
0
  6
Continuous
 62
     7
370
    25
100
AcDbCircle
 10
380.5459557783
 20
152.3249456284
 30
0.0
 40
9.326370175688833
100
AcDbArc
 50
67.780641209
 51
78.8680247264
  0
ARC
  5
1E3
330
1F
100
AcDbEntity
  8
0
  6
Continuous
 62
     7
370
    25
100
AcDbCircle
 10
378.841232612
 20
133.9128384676
 30
0.0
 40
9.583481765695957
100
AcDbArc
 50
270.500052497
 51
283.0632055186
  0
LINE
  5
1E4
330
1F
100
AcDbEntity
  8
0
  6
Continuous
 62
     7
370
    25
100
AcDbLine
 10
382.4048918093
 20
124.9426686106
 30
0.0
 11
383.964031328
 21
125.4501621714
 31
0.0
  0
LINE
  5
1E5
330
1F
100
AcDbEntity
  8
0
  6
Continuous
 62
     7
370
    25
100
AcDbLine
 10
387.0164174326
 20
159.5018276587
 30
0.0
 11
385.5723925387
 21
160.2785244197
 31
0.0
  0
ARC
  5
1E6
330
1F
100
AcDbEntity
  8
0
  6
Continuous
 62
     7
370
    25
100
AcDbCircle
 10
330.5798022809
 20
142.0695915059
 30
0.0
 40
9.866354900772212
100
AcDbArc
 50
121.985708406
 51
167.1521524569
  0
ARC
  5
1E7
330
1F
100
AcDbEntity
  8
0
  6
Continuous
 62
     7
370
    25
100
AcDbCircle
 10
342.5098721132
 20
121.3184261419
 30
0.0
 40
9.79738585722014
100
AcDbArc
 50
252.4284974151
 51
298.1572510393
  0
LINE
  5
1E8
330
1F
100
AcDbEntity
  8
0
  6
Continuous
 62
     7
370
    25
100
AcDbLine
 10
329.6515048135
 20
152.9241863815
 30
0.0
 11
325.3689443558
 21
150.4525272123
 31
0.0
  0
LINE
  5
1E9
330
1F
100
AcDbEntity
  8
0
  6
Continuous
 62
     7
370
    25
100
AcDbLine
 10
347.1631359394
 20
112.6904667122
 30
0.0
 11
351.445696397
 21
115.1621258813
 31
0.0
  0
LINE
  5
1EA
330
1F
100
AcDbEntity
  8
0
  6
Continuous
 62
     7
370
    25
100
AcDbLine
 10
324.7050638923
 20
147.4137963674
 30
0.0
 11
323.3440318731
 21
146.628283284
 31
0.0
  0
LINE
  5
1EB
330
1F
100
AcDbEntity
  8
0
  6
Continuous
 62
     7
370
    25
100
AcDbLine
 10
342.8388362712
 20
112.8502933871
 30
0.0
 11
344.1998682905
 21
113.6358064704
 31
0.0
  0
LWPOLYLINE
  5
1EC
330
1F
100
AcDbEntity
  8
0
  6
Continuous
 62
     7
370
    25
100
AcDbPolyline
 90
       57
 70
   128
 43
0.0
 10
343.1497378891
 20
113.6950653739
 10
342.5899234414
 20
113.5137557647
 10
342.0023476629
 20
113.3912456803
 10
341.3934361566
 20
113.3242034587
 10
340.7636932175
 20
113.3115016253
 10
340.1135631431
 20
113.3525414503
 10
339.443823221
 20
113.4471384356
 10
338.7556880989
 20
113.5953227726
 10
338.0508026085
 20
113.7971615318
 10
337.3311871416
 20
114.0526257753
 10
336.5991687223
 20
114.3615005686
 10
335.8573861519
 20
114.7232907363
 10
335.1086646075
 20
115.1372030287
 10
334.3558158378
 20
115.6022241181
 10
333.6017662241
 20
116.1170381054
 10
332.8495182298
 20
116.6800195935
 10
332.1021360624
 20
117.2892159358
 10
331.3627483262
 20
117.9423129438
 10
330.6345771766
 20
118.6365648385
 10
329.9210163123
 20
119.36864841
 10
329.2258134194
 20
120.1343463064
 10
328.5535101526
 20
120.9278023682
 10
327.91062962
 20
121.7395331572
 10
327.3095788784
 20
122.5499466478
 10
326.7552976887
 20
123.3461973758
 10
326.3744067414
 20
123.9234470194
 10
325.9978468937
 20
124.5206869719
 10
325.4988892549
 20
125.3572876141
 10
324.9120042685
 20
126.417386289
 10
324.6860598266
 20
126.8508210998
 10
324.3259509282
 20
127.5753353694
 10
323.9726813619
 20
128.3322735263
 10
323.6177275679
 20
129.1478545004
 10
323.2745380687
 20
130.0008181967
 10
322.9501075417
 20
130.8810782531
 10
322.6499603473
 20
131.7797277557
 10
322.3782257288
 20
132.6894357926
 10
322.1380462602
 20
133.6038807891
 10
321.9318101355
 20
134.5174755472
 10
321.7613086223
 20
135.4251850857
 10
321.6278431584
 20
136.3224123213
 10
321.5323008999
 20
137.2049273688
 10
321.4752107138
 20
138.0688261522
 10
321.4567878444
 20
138.9105093001
 10
321.4769733615
 20
139.7266755454
 10
321.5354734791
 20
140.5143257431
 10
321.6318035774
 20
141.2707746079
 10
321.7653136472
 20
141.9935354781
 10
321.9352716214
 20
142.6805421079
 10
322.1409568949
 20
143.3301218945
 10
322.3817774348
 20
143.9409804602
 10
322.6574303863
 20
144.5121955492
 10
322.9681099191
 20
145.0431717273
 10
323.3147599074
 20
145.5335258173
 10
323.6993397913
 20
145.9828548009
 10
324.1250036747
 20
146.3903255415
 10
324.2324058302
 20
146.4732726124
  0
LWPOLYLINE
  5
1ED
330
1F
100
AcDbEntity
  8
0
  6
Continuous
 62
     7
370
    25
100
AcDbPolyline
 90
       32
 70
   128
 43
0.0
 10
352.0004577198
 20
140.6525403821
 10
351.3335431397
 20
141.7623070551
 10
351.0534223272
 20
142.2032344649
 10
350.5755946053
 20
142.9245730829
 10
350.0637017627
 20
143.657852428
 10
349.4976658388
 20
144.4254911137
 10
348.8895142484
 20
145.2041304672
 10
348.2443008992
 20
145.9823630681
 10
347.5667052774
 20
146.7507326766
 10
346.8606294849
 20
147.5018648906
 10
346.1295105884
 20
148.2297701518
 10
345.3764570891
 20
148.9294671408
 10
344.6043408563
 20
149.5967246281
 10
343.8158554768
 20
150.227885466
 10
343.0135546204
 20
150.8197422282
 10
342.1998787564
 20
151.3694460242
 10
341.3771759787
 20
151.8744368949
 10
340.5477210905
 20
152.3323886966
 10
339.713735999
 20
152.7411644882
 10
338.8775291142
 20
153.0987349447
 10
338.0413637777
 20
153.4032414921
 10
337.2075106699
 20
153.652961386
 10
336.3782961175
 20
153.8462938526
 10
335.5561142987
 20
153.9817698566
 10
334.7434244934
 20
154.0580670453
 10
333.9427289466
 20
154.0740214704
 10
333.1565351571
 20
154.0286243577
 10
332.3873147002
 20
153.9209937791
 10
331.63747607
 20
153.7503180288
 10
330.9093675297
 20
153.515777627
 10
330.205317816
 20
153.2164617549
 10
329.636078433
 20
152.9096980452
  0
LWPOLYLINE
  5
1EE
330
1F
100
AcDbEntity
  8
0
  6
Continuous
 62
     7
370
    25
100
AcDbPolyline
 90
       31
 70
   128
 43
0.0
 10
351.4157511979
 20
115.1521634251
 10
351.5694889575
 20
115.2350128675
 10
352.2181068757
 20
115.6672862177
 10
352.8345158208
 20
116.1677432525
 10
353.4154368193
 20
116.7375780339
 10
353.9573986321
 20
117.3780525634
 10
354.4564896006
 20
118.0901264351
 10
354.8599553064
 20
118.7821716266
 10
355.219070352
 20
119.5213878469
 10
355.5322950328
 20
120.3050994861
 10
355.798420903
 20
121.1303855418
 10
356.01657109
 20
121.9941147552
 10
356.1862027163
 20
122.8930488446
 10
356.3070779395
 20
123.8239216276
 10
356.3792196089
 20
124.7834847961
 10
356.4028659292
 20
125.7684781275
 10
356.3784458125
 20
126.7755799711
 10
356.3065466052
 20
127.8016660486
 10
356.1878882035
 20
128.8435610859
 10
356.0233298579
 20
129.898009963
 10
355.8138921286
 20
130.961621069
 10
355.5608017235
 20
132.030779295
 10
355.2655776236
 20
133.1014924358
 10
354.930204646
 20
134.1690857159
 10
354.5575183839
 20
135.2275197987
 10
354.1521816813
 20
136.2676450631
 10
353.723680283
 20
137.2717985739
 10
353.2988918436
 20
138.190818372
 10
352.9398418013
 20
138.9186292107
 10
352.6025482578
 20
139.5672606125
 10
352.0004577198
 20
140.6525403821
  0
LINE
  5
1EF
330
1F
100
AcDbEntity
  8
0
  6
Continuous
 62
     7
370
    25
100
AcDbLine
 10
341.584922798
 20
157.0404659421
 30
0.0
 11
336.1232926299
 21
153.8883123608
 31
0.0
  0
LINE
  5
1F0
330
1F
100
AcDbEntity
  8
0
  6
Continuous
 62
     7
370
    25
100
AcDbLine
 10
355.5253453619
 20
120.2877108884
 30
0.0
 11
360.9797538403
 21
123.4356965062
 31
0.0
  0
ARC
  5
1F1
330
1F
100
AcDbEntity
  8
0
  6
Continuous
 62
     7
370
    25
100
AcDbCircle
 10
345.165120331
 20
151.0904524811
 30
0.0
 40
6.938579272589167
100
AcDbArc
 50
97.2739082556
 51
120.8938508023
  0
ARC
  5
1F2
330
1F
100
AcDbEntity
  8
0
  6
Continuous
 62
     7
370
    25
100
AcDbCircle
 10
357.4191250888
 20
129.7515563798
 30
0.0
 40
7.242764499268804
100
AcDbArc
 50
299.8213064548
 51
321.4539928693
  0
LINE
  5
1F3
330
1F
100
AcDbEntity
  8
0
  6
Continuous
 62
     7
370
    25
100
AcDbLine
 10
363.1194468493
 20
125.2744639946
 30
0.0
 11
364.0477471028
 21
126.419818102
 31
0.0
  0
LINE
  5
1F4
330
1F
100
AcDbEntity
  8
0
  6
Continuous
 62
     7
370
    25
100
AcDbLine
 10
345.7036027211
 20
158.2040982076
 30
0.0
 11
344.2474757653
 21
157.9732916203
 31
0.0
  0
LINE
  5
1F5
330
1F
100
AcDbEntity
  8
0
  6
Continuous
 62
     7
370
    25
100
AcDbLine
 10
352.3775716188
 20
162.5189025886
 30
0.0
 11
344.5977419783
 21
158.0288113323
 31
0.0
  0
LINE
  5
1F6
330
1F
100
AcDbEntity
  8
0
  6
Continuous
 62
     7
370
    25
100
AcDbLine
 10
363.3427462073
 20
125.5499748929
 30
0.0
 11
366.0971902334
 21
127.1396890139
 31
0.0
  0
LWPOLYLINE
  5
1F7
330
1F
100
AcDbEntity
  8
0
  6
Continuous
 62
     7
370
    25
100
AcDbPolyline
 90
       15
 70
   128
 43
0.0
 10
345.397633207
 20
116.4113091951
 10
345.0023126291
 20
116.3988423004
 10
344.2124081738
 20
116.4313960417
 10
343.3997845314
 20
116.538939998
 10
342.5680710765
 20
116.7209938521
 10
341.7209824431
 20
116.9767445071
 10
340.8623019348
 20
117.3050497187
 10
339.9958646272
 20
117.7044431959
 10
339.1255402396
 20
118.1731411507
 10
338.2552158519
 20
118.7090502641
 10
337.3887785443
 20
119.309777036
 10
336.530098036
 20
119.9726384747
 10
335.6830094027
 20
120.6946740802
 10
334.8512959477
 20
121.4726590662
 10
334.2292578426
 20
122.1018384181
  0
LWPOLYLINE
  5
1F8
330
1F
100
AcDbEntity
  8
0
  6
Continuous
 62
     7
370
    25
100
AcDbPolyline
 90
       16
 70
   128
 43
0.0
 10
327.249289189
 20
133.8845408879
 10
326.9659681685
 20
134.8310615576
 10
326.680320619
 20
135.9459792439
 10
326.4502564415
 20
137.0487302795
 10
326.2768031583
 20
138.1343895106
 10
326.1607354541
 20
139.1981081196
 10
326.1025717153
 20
140.2351352808
 10
326.1025717153
 20
141.2408393792
 10
326.1607354541
 20
142.2107286962
 10
326.2768031583
 20
143.1404714707
 10
326.4502564415
 20
144.0259152458
 10
326.680320619
 20
144.8631054145
 10
326.9659681685
 20
145.6483028824
 10
327.3059233186
 20
146.3780007669
 10
327.6986677471
 20
147.0489400602
 10
327.7074942597
 20
147.0624161481
  0
ELLIPSE
  5
1F9
330
1F
100
AcDbEntity
  8
0
  6
Continuous
 62
     7
370
    25
100
AcDbEllipse
 10
359.2373809261
 20
144.8292958012
 30
0.0
 11
-4.134936476919165
 21
18.75300548178731
 31
0.0
210
0.0
220
0.0
230
1.0
 40
0.6979317702
 41
3.358922259231925
 42
5.715383155062093
  0
ELLIPSE
  5
1FA
330
1F
100
AcDbEntity
  8
0
  6
Continuous
 62
     7
370
    25
100
AcDbEllipse
 10
359.2373809261
 20
144.8292958012
 30
0.0
 11
-4.134936476919165
 21
18.75300548178731
 31
0.0
210
0.0
220
0.0
230
1.0
 40
0.6979317702
 41
5.715383155062089
 42
6.50051491282169
  0
LWPOLYLINE
  5
1FB
330
1F
100
AcDbEntity
  8
0
  6
Continuous
 62
     7
370
    25
100
AcDbPolyline
 90
        3
 70
   128
 43
0.0
 10
377.4674502658
 20
124.3699749269
 10
378.3964875659
 20
124.3239179289
 10
378.8793063202
 20
124.329173072
  0
LWPOLYLINE
  5
1FC
330
1F
100
AcDbEntity
  8
0
  6
Continuous
 62
     7
370
    25
100
AcDbPolyline
 90
        3
 70
   128
 43
0.0
 10
382.3001194376
 20
161.4901355897
 10
381.3491334971
 20
161.6599713184
 10
380.8155200875
 20
161.7202149324
  0
ARC
  5
1FD
330
1F
100
AcDbEntity
  8
0
  6
Continuous
 62
     7
370
    25
100
AcDbCircle
 10
378.4494793785
 20
137.1419588758
 30
0.0
 40
12.82443554648096
100
AcDbArc
 50
281.6819338964
 51
296.1186166504
  0
ARC
  5
1FE
330
1F
100
AcDbEntity
  8
0
  6
Continuous
 62
     7
370
    25
100
AcDbCircle
 10
379.5210276244
 20
148.9905824542
 30
0.0
 40
12.80763710334886
100
AcDbArc
 50
53.1845829948
 51
68.9774806157
  0
LWPOLYLINE
  5
1FF
330
1F
100
AcDbEntity
  8
0
  6
Continuous
 62
     7
370
    25
100
AcDbPolyline
 90
       39
 70
   128
 43
0.0
 10
383.964031328
 20
125.4501621714
 10
384.6646246291
 20
125.7017138839
 10
385.5859770343
 20
126.1063455131
 10
386.4862307292
 20
126.5875202198
 10
387.3612780625
 20
127.1430425141
 10
388.2071263941
 20
127.7703776752
 10
389.019916312
 20
128.4666633166
 10
389.7959392422
 20
129.2287224467
 10
390.53165437
 20
130.0530779645
 10
391.2237047962
 20
130.9359685247
 10
391.8689328533
 20
131.8733657003
 10
392.4643945137
 20
132.860992363
 10
393.0073728224
 20
133.8943421987
 10
393.4953902939
 20
134.9687002693
 10
393.9262202165
 20
136.0791645253
 10
394.297896812
 20
137.2206681729
 10
394.6087242054
 20
138.3880027928
 10
394.8572841625
 20
139.5758421049
 10
395.0424425612
 20
140.7787662709
 10
395.1633545664
 20
141.9912866237
 10
395.2194684842
 20
143.207870711
 10
395.2105282796
 20
144.4229675386
 10
395.1365747449
 20
145.6310328985
 10
394.997945313
 20
146.8265546655
 10
394.7952725181
 20
148.004077948
 10
394.5294811099
 20
149.1582299773
 10
394.2017838335
 20
150.2837446224
 10
393.8136758964
 20
151.3754864181
 10
393.3669281462
 20
152.4284739971
 10
392.8635789903
 20
153.4379028184
 10
392.3059250955
 20
154.39916709
 10
391.6965109087
 20
155.3078807835
 10
391.0381170469
 20
156.1598976466
 10
390.3337476104
 20
156.9513301218
 10
389.5866164753
 20
157.6785670843
 10
388.8001326297
 20
158.3382903187
 10
387.9778846189
 20
158.927489659
 10
387.1236241721
 20
159.443476724
 10
387.0164174326
 20
159.5018276587
  0
LINE
  5
200
330
1F
100
AcDbEntity
  8
0
  6
Continuous
 62
     7
370
    25
100
AcDbLine
 10
347.1631359394
 20
112.6904667122
 30
0.0
 11
347.1395572476
 21
112.6769171157
 31
0.0
  0
LINE
  5
201
330
1F
100
AcDbEntity
  8
0
  6
Continuous
 62
     7
370
    25
100
AcDbLine
 10
351.445696397
 20
115.1621258813
 30
0.0
 11
351.4221177052
 21
115.1485762849
 31
0.0
  0
LWPOLYLINE
  5
202
330
1F
100
AcDbEntity
  8
0
  6
Continuous
 62
     7
370
    25
100
AcDbPolyline
 90
       98
 70
   128
 43
0.0
 10
346.8800163053
 20
121.7812744222
 10
346.8510992524
 20
120.7671730991
 10
346.7644693819
 20
119.7907039454
 10
346.6204900497
 20
118.8559626119
 10
346.419765155
 20
117.9668697287
 10
346.1631366077
 20
117.1271544604
 10
345.8516807974
 20
116.3403388646
 10
345.4867040777
 20
115.6097231194
 10
345.069737288
 20
114.938371681
 10
344.6025293319
 20
114.3291004307
 10
344.0870398418
 20
113.784464864
 10
343.5254309599
 20
113.3067493716
 10
342.920058269
 20
112.8979576583
 10
342.2734609125
 20
112.5598043386
 10
341.5883509445
 20
112.2937077451
 10
340.8676019542
 20
112.1007839794
 10
340.1142370134
 20
111.9818422308
 10
339.3314159965
 20
111.9373813822
 10
338.5224223268
 20
111.9675879181
 10
337.690649205
 20
112.0723351416
 10
336.8395853766
 20
112.2511837064
 10
335.9728004991
 20
112.5033834597
 10
335.0939301694
 20
112.8278765879
 10
334.2066606751
 20
113.2233020541
 10
333.3147135329
 20
113.6880013065
 10
332.4218298791
 20
114.2200252349
 10
331.531754778
 20
114.817142346
 10
330.6482215138
 20
115.4768481233
 10
329.7749359322
 20
116.1963755313
 10
328.9155608963
 20
116.9727066222
 10
328.0737009238
 20
117.8025851934
 10
327.2528870679
 20
118.6825304459
 10
326.4565621071
 20
119.6088515836
 10
325.6880661052
 20
120.5776632935
 10
324.9506224013
 20
121.5849020427
 10
324.2473240908
 20
122.6263431219
 10
323.581121051
 20
123.6976183653
 10
322.9548075691
 20
124.7942344721
 10
322.3710106215
 20
125.9115918534
 10
321.8321788555
 20
127.0450039239
 10
321.3405723187
 20
128.1897167596
 10
320.8982529798
 20
129.340929037
 10
320.5070760799
 20
130.4938121717
 10
320.1686823507
 20
131.6435305713
 10
319.8844911333
 20
132.7852619171
 10
319.6556944242
 20
133.9142173912
 10
319.4832518765
 20
135.0256617619
 10
319.3678867741
 20
136.1149332454
 10
319.3100829984
 20
137.1774630584
 10
319.3100829984
 20
138.2087945816
 10
319.3678867741
 20
139.2046020523
 10
319.4832518765
 20
140.1607087078
 10
319.6556944242
 20
141.0731043046
 10
319.8844911333
 20
141.9379619385
 10
320.1686823507
 20
142.7516540959
 10
320.5070760799
 20
143.5107678692
 10
320.8982529798
 20
144.2121192714
 10
321.3405723187
 20
144.852766591
 10
321.8321788555
 20
145.4300227305
 10
322.3710106215
 20
145.941466477
 10
322.9548075691
 20
146.3849526578
 10
323.581121051
 20
146.7586211376
 10
324.2473240908
 20
147.060904621
 10
324.9506224013
 20
147.290535226
 10
325.6880661052
 20
147.446549802
 10
326.4565621071
 20
147.5282939698
 10
327.2528870679
 20
147.5354248658
 10
328.0737009238
 20
147.4679125806
 10
328.9155608963
 20
147.3260402842
 10
329.7749359322
 20
147.1104030382
 10
330.6482215138
 20
146.8219053004
 10
331.531754778
 20
146.4617571303
 10
332.4218298791
 20
146.0314691147
 10
333.3147135329
 20
145.5328460309
 10
334.2066606751
 20
144.9679792775
 10
335.0939301694
 20
144.339238102
 10
335.9728004991
 20
143.6492596633
 10
336.8395853766
 20
142.9009379708
 10
337.690649205
 20
142.0974117457
 10
338.5224223268
 20
141.2420512563
 10
339.3314159965
 20
140.3384441817
 10
340.1142370134
 20
139.390380564
 10
340.8676019542
 20
138.4018369116
 10
341.5883509445
 20
137.3769595199
 10
342.2734609125
 20
136.320047081
 10
342.920058269
 20
135.235532653
 10
343.5254309599
 20
134.1279650662
 10
344.0870398418
 20
133.0019898441
 10
344.6025293319
 20
131.8623297179
 10
345.069737288
 20
130.7137648184
 10
345.4867040777
 20
129.5611126258
 10
345.8516807974
 20
128.4092077641
 10
346.1631366077
 20
127.2628817226
 10
346.419765155
 20
126.126942591
 10
346.6204900497
 20
125.0061548928
 10
346.7644693819
 20
123.9052196012
 10
346.8510992524
 20
122.8287544213
 10
346.8800163053
 20
121.7812744222
  0
LWPOLYLINE
  5
203
330
1F
100
AcDbEntity
  8
0
  6
Continuous
 62
     7
370
    25
100
AcDbPolyline
 90
       97
 70
   128
 43
0.0
 10
319.6564052296
 20
137.49325061
 10
319.6851706577
 20
138.4914561317
 10
319.7713437638
 20
139.4521835273
 10
319.9145555416
 20
140.3713188145
 10
320.1141927362
 20
141.244926115
 10
320.3694004705
 20
142.0692645081
 10
320.6790859058
 20
142.8408040503
 10
321.0419229216
 20
143.5562408908
 10
321.4563577939
 20
144.2125114192
 10
321.9206158492
 20
144.8068053845
 10
322.432709063
 20
145.3365779285
 10
322.9904445737
 20
145.799560484
 10
323.5914340722
 20
146.1937704885
 10
324.2331040291
 20
146.5175198743
 10
324.9127067152
 20
146.7694222968
 10
325.6273319675
 20
146.9483990711
 10
326.3739196509
 20
147.0536837913
 10
327.1492727623
 20
147.084825612
 10
327.9500711208
 20
147.0416911792
 10
328.7728855847
 20
146.924465201
 10
329.6141927362
 20
146.7336496572
 10
330.470389969
 20
146.4700616492
 10
331.337810915
 20
146.1348299014
 10
332.2127411446
 20
145.7293899274
 10
333.0914340722
 20
145.2554778836
 10
333.9701269998
 20
144.715123134
 10
334.8450572293
 20
144.1106395608
 10
335.7124781753
 20
143.4446156552
 10
336.5686754081
 20
142.719903434
 10
337.4099825596
 20
141.9396062261
 10
338.2327970235
 20
141.1070653839
 10
339.033595382
 20
140.2258459753
 10
339.8089484934
 20
139.2997215168
 10
340.5555361768
 20
138.3326578158
 10
341.2701614291
 20
137.3287959874
 10
341.9497641152
 20
136.292434722
 10
342.5914340722
 20
135.2280118778
 10
343.1924235706
 20
134.1400854767
 10
343.7501590813
 20
133.0333141866
 10
344.2622522951
 20
131.9124373721
 10
344.7265103504
 20
130.7822547999
 10
345.1409452227
 20
129.6476060851
 10
345.5037822385
 20
128.5133499677
 10
345.8134676738
 20
127.3843435067
 10
346.0686754081
 20
126.265421281
 10
346.2683126027
 20
125.1613746873
 10
346.4115243805
 20
124.0769314227
 10
346.4976974867
 20
123.0167352396
 10
346.5264629147
 20
121.985326061
 10
346.4976974867
 20
120.9871205393
 10
346.4115243805
 20
120.0263931437
 10
346.2683126027
 20
119.1072578565
 10
346.0686754081
 20
118.2336505561
 10
345.8134676738
 20
117.409312163
 10
345.5037822385
 20
116.6377726208
 10
345.1409452227
 20
115.9223357803
 10
344.7265103504
 20
115.2660652518
 10
344.2622522951
 20
114.6717712865
 10
343.7501590813
 20
114.1419987425
 10
343.1924235706
 20
113.6790161871
 10
342.5914340722
 20
113.2848061826
 10
341.9497641152
 20
112.9610567968
 10
341.2701614291
 20
112.7091543743
 10
340.5555361768
 20
112.5301775999
 10
339.8089484934
 20
112.4248928797
 10
339.033595382
 20
112.393751059
 10
338.2327970235
 20
112.4368854919
 10
337.4099825596
 20
112.55411147
 10
336.5686754081
 20
112.7449270138
 10
335.7124781753
 20
113.0085150218
 10
334.8450572293
 20
113.3437467697
 10
333.9701269998
 20
113.7491867436
 10
333.0914340722
 20
114.2230987875
 10
332.2127411446
 20
114.763453537
 10
331.337810915
 20
115.3679371103
 10
330.470389969
 20
116.0339610159
 10
329.6141927362
 20
116.7586732371
 10
328.7728855847
 20
117.538970445
 10
327.9500711208
 20
118.3715112871
 10
327.1492727623
 20
119.2527306958
 10
326.3739196509
 20
120.1788551542
 10
325.6273319675
 20
121.1459188552
 10
324.9127067152
 20
122.1497806837
 10
324.2331040291
 20
123.186141949
 10
323.5914340722
 20
124.2505647933
 10
322.9904445737
 20
125.3384911944
 10
322.432709063
 20
126.4452624844
 10
321.9206158492
 20
127.5661392989
 10
321.4563577939
 20
128.6963218712
 10
321.0419229216
 20
129.830970586
 10
320.6790859058
 20
130.9652267033
 10
320.3694004705
 20
132.0942331643
 10
320.1141927362
 20
133.2131553901
 10
319.9145555416
 20
134.3172019837
 10
319.7713437638
 20
135.4016452484
 10
319.6851706577
 20
136.4618414314
 10
319.6564052296
 20
137.49325061
  0
LWPOLYLINE
  5
204
330
1F
100
AcDbEntity
  8
0
  6
Continuous
 62
     7
370
    25
100
AcDbPolyline
 90
        3
 70
   128
 43
0.0
 10
344.1998682905
 20
113.6358064704
 10
344.2810902882
 20
113.6834707416
 10
344.2958144619
 20
113.6922817734
  0
LINE
  5
205
330
1F
100
AcDbEntity
  8
0
  6
Continuous
 62
     7
370
    25
100
AcDbLine
 10
360.9797538403
 20
123.4356965062
 30
0.0
 11
361.018574975
 21
123.458281952
 31
0.0
  0
LWPOLYLINE
  5
206
330
1F
100
AcDbEntity
  8
0
  6
Continuous
 62
     7
370
    25
100
AcDbPolyline
 90
        3
 70
   128
 43
0.0
 10
344.2804911243
 20
157.9784481969
 10
344.251927362
 20
157.9739958356
 10
344.2474757653
 20
157.9732916203
  0
LINE
  5
207
330
1F
100
AcDbEntity
  8
0
  6
Continuous
 62
     7
370
    25
100
AcDbLine
 10
363.0906563031
 20
125.2391655235
 30
0.0
 11
363.1194468493
 21
125.2744639946
 31
0.0
  0
LINE
  5
208
330
1F
100
AcDbEntity
  8
0
  6
Continuous
 62
     7
370
    25
100
AcDbLine
 10
364.0477471028
 20
126.419818102
 30
0.0
 11
364.0776365894
 21
126.4569476757
 31
0.0
  0
ELLIPSE
  5
209
330
1F
100
AcDbEntity
  8
0
  6
Continuous
 62
     7
370
    25
100
AcDbEllipse
 10
359.2373809261
 20
144.8292958012
 30
0.0
 11
-4.134936476919165
 21
18.75300548178734
 31
0.0
210
0.0
220
0.0
230
1.0
 40
0.6979317702
 41
5.71538315506209
 42
6.500514912821686
  0
ELLIPSE
  5
20A
330
1F
100
AcDbEntity
  8
0
  6
Continuous
 62
     7
370
    25
100
AcDbEllipse
 10
359.2373809261
 20
144.8292958012
 30
0.0
 11
-4.134936476919165
 21
18.75300548178734
 31
0.0
210
0.0
220
0.0
230
1.0
 40
0.6979317702
 41
3.35892225923192
 42
5.715383155062098
  0
LWPOLYLINE
  5
20B
330
1F
100
AcDbEntity
  8
0
  6
Continuous
 62
     8
370
    18
100
AcDbPolyline
 90
       30
 70
   128
 43
0.0
 10
336.473870673
 20
114.4185028867
 10
336.3866252966
 20
114.4620712369
 10
335.4892146779
 20
114.946771342
 10
334.5918040591
 20
115.4979436811
 10
333.6980810931
 20
116.1133233686
 10
332.8117182793
 20
116.7903816775
 10
331.9363578724
 20
117.52633643
 10
331.0755969162
 20
118.3181634301
 10
330.2329724621
 20
119.1626088909
 10
329.4119470348
 20
120.0562028047
 10
328.6158944038
 20
120.9952732026
 10
327.8480857201
 20
121.9759612428
 10
327.1116760743
 20
122.9942370679
 10
326.4096915316
 20
124.045916364
 10
325.745016697
 20
125.1266775553
 10
325.1203828621
 20
126.2320795623
 10
324.5383567812
 20
127.357580051
 10
324.0013301244
 20
128.4985540985
 10
323.5115096494
 20
129.6503131977
 10
323.0709081335
 20
130.8081245234
 10
322.6813361029
 20
131.9672303805
 10
322.3443943927
 20
133.1228677545
 10
322.0614675686
 20
134.2702878833
 10
321.8337182376
 20
135.4047757718
 10
321.6620822705
 20
136.5216695657
 10
321.5472649565
 20
137.6163797088
 10
321.4897381044
 20
138.6844078025
 10
321.4897381044
 20
139.7213650901
 10
321.5472649565
 20
140.7229904918
 10
321.5715933772
 20
140.9768481775
  0
LWPOLYLINE
  5
20C
330
1F
100
AcDbEntity
  8
0
  6
Continuous
 62
     8
370
    18
100
AcDbPolyline
 90
       44
 70
   128
 43
0.0
 10
324.176256664
 20
146.4787366895
 10
323.780046331
 20
145.9801624343
 10
323.3541448223
 20
145.3298758397
 10
322.9793605024
 20
144.620127424
 10
322.6572653468
 20
143.8538941187
 10
322.3892103346
 20
143.0343897725
 10
322.1763197817
 20
142.1650516715
 10
322.019486625
 20
141.2495261218
 10
321.9193686773
 20
140.2916531556
 10
321.8763858681
 20
139.2954504253
 10
321.8907184822
 20
138.265096351
 10
321.9623064035
 20
137.204912596
 10
322.0908493677
 20
136.1193459394
 10
322.2758082206
 20
135.0129496249
 10
322.5164071807
 20
133.8903642632
 10
322.8116370923
 20
132.7562983675
 10
323.1602596585
 20
131.6155086042
 10
323.5608126352
 20
130.472779842
 10
324.0116159639
 20
129.3329050825
 10
324.5107788188
 20
128.2006653566
 10
325.0562075375
 20
127.0808096711
 10
325.6456144024
 20
125.97803509
 10
326.2765272362
 20
124.8969670331
 10
326.9462997712
 20
123.8421398756
 10
327.6521227487
 20
122.8179779291
 10
328.3910357018
 20
121.8287768848
 10
329.1599393728
 20
120.8786857955
 10
329.9556087124
 20
119.9716896736
 10
330.7747064071
 20
119.1115927759
 10
331.6137968763
 20
118.3020026478
 10
332.469360683
 20
117.5463149915
 10
333.3378092954
 20
116.8476994238
 10
334.215500138
 20
116.2090861811
 10
335.0987518706
 20
115.6331538293
 10
335.9838598284
 20
115.1223180288
 10
336.8671115609
 20
114.6787214025
 10
337.7448024036
 20
114.3042245489
 10
338.6132510159
 20
114.0003982377
 10
339.4688148227
 20
113.7685168223
 10
340.3079052919
 20
113.6095528939
 10
341.1270029865
 20
113.5241732023
 10
341.9226723262
 20
113.5127358597
 10
342.6915759972
 20
113.5752888384
 10
343.0376533517
 20
113.6292563198
  0
LWPOLYLINE
  5
20D
330
1F
100
AcDbEntity
  8
0
  6
Continuous
 62
     8
370
    18
100
AcDbPolyline
 90
       45
 70
   128
 43
0.0
 10
343.4917598735
 20
113.9144408454
 10
343.1975571725
 20
113.850680801
 10
342.443879849
 20
113.744396291
 10
341.6611639392
 20
113.7129587457
 10
340.8527611529
 20
113.7565027857
 10
340.0221331949
 20
113.8748419485
 10
339.1728369416
 20
114.0674694879
 10
338.3085092101
 20
114.3335605429
 10
337.4328511842
 20
114.671975671
 10
336.5496125662
 20
115.0812657266
 10
335.6625755194
 20
115.5596780668
 10
334.7755384726
 20
116.1051640565
 10
333.8922998546
 20
116.715387841
 10
333.0166418287
 20
117.3877363484
 10
332.1523140972
 20
118.1193304791
 10
331.3030178439
 20
118.9070374347
 10
330.4723898859
 20
119.7474841332
 10
329.6639870996
 20
120.6370716527
 10
328.8812711899
 20
121.5719906429
 10
328.1275938663
 20
122.5482376372
 10
327.406182491
 20
123.5616321961
 10
326.7201262582
 20
124.6078348084
 10
326.072362966
 20
125.6823654739
 10
325.4656664362
 20
126.7806228875
 10
324.9026346366
 20
127.8979041422
 10
324.3856785558
 20
129.0294248682
 10
323.917011879
 20
130.1703397201
 10
323.498641509
 20
131.3157631252
 10
323.1323589718
 20
132.4607902046
 10
322.8197327455
 20
133.6005177768
 10
322.5621015437
 20
134.7300653532
 10
322.3605685827
 20
135.8445960376
 10
322.2159968575
 20
136.9393372387
 10
322.1290054465
 20
138.0096011064
 10
322.0999668603
 20
139.0508046067
 10
322.1290054465
 20
140.0584891462
 10
322.2159968575
 20
141.0283396651
 10
322.3605685827
 20
141.9562031145
 10
322.5621015437
 20
142.8381062408
 10
322.8197327455
 20
143.6702725993
 10
323.1323589718
 20
144.4491387259
 10
323.498641509
 20
145.1713693964
 10
323.917011879
 20
145.833871908
 10
324.3856785558
 20
146.4338093233
 10
324.592082615
 20
146.6612740248
  0
LWPOLYLINE
  5
20E
330
1F
100
AcDbEntity
  8
0
  6
Continuous
 62
     8
370
    18
100
AcDbPolyline
 90
       45
 70
   128
 43
0.0
 10
343.6499098487
 20
114.0508565323
 10
343.4854580079
 20
114.0168413834
 10
342.7317806844
 20
113.9105568734
 10
341.9490647746
 20
113.8791193281
 10
341.1406619883
 20
113.922663368
 10
340.3100340303
 20
114.0410025309
 10
339.4607377771
 20
114.2336300702
 10
338.5964100455
 20
114.4997211253
 10
337.7207520196
 20
114.8381362534
 10
336.8375134016
 20
115.2474263089
 10
335.9504763548
 20
115.7258386491
 10
335.063439308
 20
116.2713246389
 10
334.18020069
 20
116.8815484234
 10
333.3045426641
 20
117.5538969308
 10
332.4402149326
 20
118.2854910615
 10
331.5909186793
 20
119.0731980171
 10
330.7602907213
 20
119.9136447156
 10
329.951887935
 20
120.8032322351
 10
329.1691720253
 20
121.7381512253
 10
328.4154947017
 20
122.7143982196
 10
327.6940833264
 20
123.7277927784
 10
327.0080270936
 20
124.7739953907
 10
326.3602638014
 20
125.8485260563
 10
325.7535672716
 20
126.9467834699
 10
325.190535472
 20
128.0640647246
 10
324.6735793912
 20
129.1955854506
 10
324.2049127144
 20
130.3365003024
 10
323.7865423444
 20
131.4819237075
 10
323.4202598072
 20
132.626950787
 10
323.107633581
 20
133.7666783592
 10
322.8500023791
 20
134.8962259355
 10
322.6484694181
 20
136.01075662
 10
322.5038976929
 20
137.105497821
 10
322.4169062819
 20
138.1757616888
 10
322.3878676957
 20
139.216965189
 10
322.4169062819
 20
140.2246497285
 10
322.5038976929
 20
141.1945002474
 10
322.6484694181
 20
142.1223636969
 10
322.8500023791
 20
143.0042668231
 10
323.107633581
 20
143.8364331816
 10
323.4202598072
 20
144.6152993083
 10
323.7865423444
 20
145.3375299787
 10
324.2049127144
 20
146.0000324903
 10
324.6735793912
 20
146.5999699057
 10
324.7893181956
 20
146.729967402
  0
LWPOLYLINE
  5
20F
330
1F
100
AcDbEntity
  8
0
  6
Continuous
 62
     8
370
    18
100
AcDbPolyline
 90
       45
 70
   128
 43
0.0
 10
343.6895442936
 20
114.0864441452
 10
343.5181972263
 20
114.0509119388
 10
342.7650464483
 20
113.9447016828
 10
341.9828773716
 20
113.913286101
 10
341.175039364
 20
113.9567997195
 10
340.344991712
 20
114.0750562064
 10
339.4962888072
 20
114.2675491694
 10
338.6325649255
 20
114.5334543238
 10
337.7575186653
 20
114.8716330231
 10
336.8748971089
 20
115.2806371342
 10
335.9884797775
 20
115.7587152387
 10
335.1020624461
 20
116.3038201326
 10
334.2194408898
 20
116.9136175932
 10
333.3443946296
 20
117.5854963742
 10
332.4806707479
 20
118.3165793874
 10
331.631967843
 20
119.1037360231
 10
330.8019201911
 20
119.9435955558
 10
329.9940821835
 20
120.8325615781
 10
329.2119131067
 20
121.7668274009
 10
328.4587623288
 20
122.7423923545
 10
327.7378549569
 20
123.7550789201
 10
327.0522780272
 20
124.8005506183
 10
326.4049672854
 20
125.8743305788
 10
325.7986946152
 20
126.971820711
 10
325.2360561696
 20
128.0883213935
 10
324.7194612525
 20
129.2190515992
 10
324.2511220028
 20
130.3591693676
 10
323.8330439211
 20
131.5037925394
 10
323.4670172818
 20
132.6480196626
 10
323.1546094673
 20
133.7869509808
 10
322.8971582557
 20
134.9157094153
 10
322.6957660927
 20
136.0294614493
 10
322.5512953705
 20
137.1234378254
 10
322.4643647348
 20
138.192953969
 10
322.4353464359
 20
139.2334300477
 10
322.4643647348
 20
140.2404105833
 10
322.5512953705
 20
141.2095835303
 10
322.6957660927
 20
142.1367987416
 10
322.8971582557
 20
143.0180857392
 10
323.1546094673
 20
143.8496707169
 10
323.4670172818
 20
144.6279927001
 10
323.8330439211
 20
145.3497187947
 10
324.2511220028
 20
146.0117584586
 10
324.7194612525
 20
146.6112767365
 10
324.8399602781
 20
146.7464824526
  0
LWPOLYLINE
  5
210
330
1F
100
AcDbEntity
  8
0
  6
Continuous
 62
     8
370
    18
100
AcDbPolyline
 90
       46
 70
   128
 43
0.0
 10
344.7609658132
 20
115.3155144888
 10
344.5632070706
 20
115.2604076601
 10
343.846889616
 20
115.1136059979
 10
343.1000791209
 20
115.0403034523
 10
342.3260411976
 20
115.0408205568
 10
341.528160517
 20
115.11515505
 10
340.7099260084
 20
115.2629818862
 10
339.874915603
 20
115.4836546563
 10
339.0267805888
 20
115.7762084143
 10
338.1692296446
 20
116.1393638971
 10
337.3060126223
 20
116.5715331183
 10
336.4409041504
 20
117.0708263117
 10
335.5776871282
 20
117.6350601953
 10
334.7201361839
 20
118.2617675178
 10
333.8720011698
 20
118.9482078476
 10
333.0369907644
 20
119.6913795557
 10
332.2187562557
 20
120.4880329415
 10
331.4208755752
 20
121.3346844423
 10
330.6468376519
 20
122.2276318665
 10
329.9000271568
 20
123.1629705823
 10
329.1837097022
 20
124.1366105914
 10
328.501017562
 20
125.1442944138
 10
327.8549359753
 20
126.1816157046
 10
327.2482900924
 20
127.2440385216
 10
326.6837326215
 20
128.3269171602
 10
326.1637322287
 20
129.4255164677
 10
325.6905627434
 20
130.5350325488
 10
325.2662932155
 20
131.650613772
 10
324.8927788675
 20
132.7673819844
 10
324.5716529827
 20
133.8804538428
 10
324.3043197629
 20
134.9849621672
 10
324.0919481883
 20
136.0760772236
 10
323.9354669056
 20
137.1490278436
 10
323.8355601678
 20
138.1991222872
 10
323.7926648416
 20
139.2217687584
 10
323.8069684973
 20
140.2124954845
 10
323.8784085886
 20
141.1669702695
 10
324.0066727263
 20
142.0810194382
 10
324.1912000439
 20
142.950646086
 10
324.4311836504
 20
143.7720475569
 10
324.7255741586
 20
144.5416320712
 10
325.0730842736
 20
145.2560344317
 10
325.4721944221
 20
145.9121307387
 10
325.921159397
 20
146.5070520498
 10
326.4180159887
 20
147.0381969256
 10
326.4401735015
 20
147.0593332505
  0
LWPOLYLINE
  5
211
330
1F
100
AcDbEntity
  8
0
  6
Continuous
 62
     8
370
    18
100
AcDbPolyline
 90
       37
 70
   128
 43
0.0
 10
342.6155075385
 20
115.4348477481
 10
342.4607951668
 20
115.4622698938
 10
341.6191932749
 20
115.6531522872
 10
340.7626960852
 20
115.9168326396
 10
339.8949712502
 20
116.2521818313
 10
339.0197345009
 20
116.6577638456
 10
338.1407337354
 20
117.1318419179
 10
337.2617329698
 20
117.6723859733
 10
336.3864962205
 20
118.2770813191
 10
335.5187713855
 20
118.943338557
 10
334.6622741958
 20
119.6683046711
 10
333.8206723039
 20
120.4488752454
 10
332.9975695783
 20
121.2817077568
 10
332.1964906712
 20
122.1632358885
 10
331.4208659255
 20
123.0896848018
 10
330.6740166854
 20
124.0570873003
 10
329.959141074
 20
125.0613008179
 10
329.2793002984
 20
126.0980251582
 10
328.6374055413
 20
127.1628209083
 10
328.0362054944
 20
128.2511284494
 10
327.4782745888
 20
129.3582874815
 10
326.9660019701
 20
130.4795569798
 10
326.5015812685
 20
131.6101354959
 10
326.0870012046
 20
132.7451817193
 10
325.7240370739
 20
133.8798352076
 10
325.4142431445
 20
135.0092372005
 10
325.1589460017
 20
136.1285514252
 10
324.959238867
 20
137.2329848064
 10
324.8159769169
 20
138.3178079908
 10
324.7297736212
 20
139.3783755989
 10
324.7009981156
 20
140.4101461175
 10
324.7297736212
 20
141.4087013468
 10
324.8159769169
 20
142.36976532
 10
324.959238867
 20
143.2892226136
 10
325.1589460017
 20
144.1631359703
 10
325.4142431445
 20
144.987763159
 10
325.4627303691
 20
145.1217993044
  0
LWPOLYLINE
  5
212
330
1F
100
AcDbEntity
  8
0
  6
Continuous
 62
     8
370
    18
100
AcDbPolyline
 90
       45
 70
   128
 43
0.0
 10
326.766797771
 20
147.0788788422
 10
326.5476913734
 20
146.8717746134
 10
326.0578156804
 20
146.3303347646
 10
325.6166988189
 20
145.7248058492
 10
325.2263109241
 20
145.0578923064
 10
324.8883955631
 20
144.332572734
 10
324.6044619477
 20
143.5520865853
 10
324.3757781946
 20
142.7199197007
 10
324.2033656609
 20
141.8397887398
 10
324.0879943827
 20
140.915624581
 10
324.0301796363
 20
139.9515547658
 10
324.0301796363
 20
138.9518850639
 10
324.0879943827
 20
137.9210802431
 10
324.2033656609
 20
136.8637441277
 10
324.3757781946
 20
135.7845990377
 10
324.6044619477
 20
134.6884646969
 10
324.8883955631
 20
133.5802367074
 10
325.2263109241
 20
132.4648646844
 10
325.6166988189
 20
131.3473301501
 10
326.0578156804
 20
130.2326242851
 10
326.5476913734
 20
129.1257256364
 10
327.0841379943
 20
128.0315778819
 10
327.6647596423
 20
126.9550677512
 10
328.2869631201
 20
125.9010031999
 10
328.9479695159
 20
124.8740919362
 10
329.6448266147
 20
123.8789203949
 10
330.3744220835
 20
122.9199332538
 10
331.1334973719
 20
122.0014135823
 10
331.9186622654
 20
121.1274637122
 10
332.7264100269
 20
120.3019869158
 10
333.5531330589
 20
119.5286699728
 10
334.3951390155
 20
118.8109667044
 10
335.2486672939
 20
118.1520825477
 10
336.1099058295
 20
117.5549602392
 10
336.9750081219
 20
117.0222666722
 10
337.8401104144
 20
116.5563809853
 10
338.7013489499
 20
116.1593839372
 10
339.5548772283
 20
115.8330486131
 10
340.396883185
 20
115.5788325057
 10
341.223606217
 20
115.3978710059
 10
342.0313539785
 20
115.2909723317
 10
342.8165188719
 20
115.2586139185
 10
343.5755941604
 20
115.3009402868
 10
344.3051896292
 20
115.4177623969
 10
344.9412889341
 20
115.5885511451
  0
LWPOLYLINE
  5
213
330
1F
100
AcDbEntity
  8
0
  6
Continuous
 62
     8
370
    18
100
AcDbPolyline
 90
       37
 70
   128
 43
0.0
 10
343.0437419105
 20
115.4436121326
 10
342.5111201253
 20
115.5276077115
 10
341.6710699246
 20
115.7181381683
 10
340.8161518892
 20
115.9813323639
 10
339.9500269092
 20
116.3160632604
 10
339.0764038648
 20
116.7208974888
 10
338.1990237441
 20
117.1941014866
 10
337.3216436234
 20
117.7336489218
 10
336.4480205791
 20
118.3372293693
 10
335.5818955991
 20
119.0022582051
 10
334.7269775636
 20
119.7258876736
 10
333.8869273629
 20
120.5050190823
 10
333.065342221
 20
121.3363160708
 10
332.2657402914
 20
122.2162188979
 10
331.4915455925
 20
123.1409596846
 10
330.7460733448
 20
124.1065785489
 10
330.0325157749
 20
125.1089405624
 10
329.3539284458
 20
126.1437534573
 10
328.7132171728
 20
127.2065860058
 10
328.1131255798
 20
128.2928869957
 10
327.5562233511
 20
129.3980047195
 10
327.0448952276
 20
130.5172068935
 10
326.5813307949
 20
131.645700922
 10
326.1675151069
 20
132.7786544204
 10
325.805220186
 20
133.9112159079
 10
325.4959974347
 20
135.0385355824
 10
325.2411709923
 20
136.1557860878
 10
325.0418320647
 20
137.2581831861
 10
324.8988342517
 20
138.3410062435
 10
324.8127898921
 20
139.3996184456
 10
324.7840674409
 20
140.4294866524
 10
324.8127898921
 20
141.42620081
 10
324.8988342517
 20
142.3854928355
 10
325.0418320647
 20
143.3032548931
 10
325.2411709923
 20
144.1755569849
 10
325.4959974347
 20
144.9986637792
 10
325.6479483659
 20
145.4007618826
  0
LWPOLYLINE
  5
214
330
1F
100
AcDbEntity
  8
0
  6
Continuous
 62
     8
370
    18
100
AcDbPolyline
 90
       39
 70
   128
 43
0.0
 10
326.1777197333
 20
146.2308782127
 10
325.8750287062
 20
145.5986813395
 10
325.5747348829
 20
144.8136646021
 10
325.3299389647
 20
143.97579184
 10
325.141711382
 20
143.0887268574
 10
325.0108752061
 20
142.156348564
 10
324.9380025502
 20
141.1827340126
 10
324.9234120681
 20
140.1721405721
 10
324.9671675601
 20
139.1289873103
 10
325.0690776946
 20
138.0578356712
 10
325.2286968445
 20
136.9633695283
 10
325.4453270359
 20
135.8503747035
 10
325.7180210001
 20
134.72371804
 10
326.0455863157
 20
133.5883261208
 10
326.426590623
 20
132.4491637259
 10
326.8593678871
 20
131.3112121224
 10
327.3420256831
 20
130.1794472834
 10
327.8724534713
 20
129.0588181284
 10
328.448331826
 20
127.9542248835
 10
329.0671425775
 20
126.8704976541
 10
329.726179824
 20
125.8123753036
 10
330.4225617633
 20
124.7844847317
 10
331.1532432942
 20
123.7913206424
 10
331.9150293325
 20
122.8372258896
 10
332.7045887815
 20
121.9263724869
 10
333.5184690987
 20
121.0627433643
 10
334.3531113925
 20
120.2501149525
 10
335.2048659847
 20
119.4920406685
 10
336.0700083689
 20
118.7918353785
 10
336.9447554979
 20
118.1525609019
 10
337.8252823248
 20
117.5770126234
 10
338.7077385299
 20
117.0677072692
 10
339.5882653568
 20
116.626871902
 10
340.4630124857
 20
116.2564341827
 10
341.32815487
 20
115.9580139411
 10
342.1799094621
 20
115.7329160932
 10
343.014551756
 20
115.5821249345
 10
343.8284320732
 20
115.5062998363
 10
343.9515901098
 20
115.5013132389
  0
LWPOLYLINE
  5
215
330
1F
100
AcDbEntity
  8
0
  6
Continuous
 62
     8
370
    18
100
AcDbPolyline
 90
       40
 70
   128
 43
0.0
 10
344.4245692716
 20
115.5900015894
 10
343.91601117
 20
115.5989858018
 10
343.1038096266
 20
115.6746544971
 10
342.270888932
 20
115.8251346221
 10
341.4208912362
 20
116.0497681654
 10
340.557533363
 20
116.3475728617
 10
339.6845905567
 20
116.7172464869
 10
338.8058799741
 20
117.1571725522
 10
337.9252439929
 20
117.6654273729
 10
337.0465334102
 20
118.23978848
 10
336.1735906039
 20
118.8777443386
 10
335.3102327307
 20
119.5765053298
 10
334.460235035
 20
120.3330159498
 10
333.6273143403
 20
121.1439681701
 10
332.815112797
 20
122.0058159029
 10
332.0271819557
 20
122.9147905074
 10
331.2669672376
 20
123.8669172689
 10
330.5377928681
 20
124.8580327794
 10
329.8428473413
 20
125.8838031429
 10
329.1851694772
 20
126.9397429267
 10
328.5676351336
 20
128.0212347746
 10
327.9929446312
 20
129.123549598
 10
327.4636109453
 20
130.2418672548
 10
326.9819487174
 20
131.3712976262
 10
326.5500641339
 20
132.5069020007
 10
326.1698457162
 20
133.6437146692
 10
325.8429560627
 20
134.7767646393
 10
325.5708245786
 20
135.9010973716
 10
325.3546412258
 20
137.0117964453
 10
325.195351319
 20
138.1040050558
 10
325.0936513924
 20
139.1729472528
 10
325.0499861539
 20
140.2139488242
 10
325.0645465406
 20
141.2224577348
 10
325.1372688835
 20
142.1940640318
 10
325.2678351864
 20
143.124519128
 10
325.455674516
 20
144.0097543802
 10
325.6999654988
 20
144.8458988797
 10
325.9996399123
 20
145.6292963795
 10
326.3533873568
 20
146.3565212815
 10
326.5152191769
 20
146.6402416227
  0
LWPOLYLINE
  5
216
330
1F
100
AcDbEntity
  8
0
  6
Continuous
 62
     8
370
    18
100
AcDbPolyline
 90
       40
 70
   128
 43
0.0
 10
344.5247249172
 20
115.6089857662
 10
344.0067317324
 20
115.6178691842
 10
343.1931965931
 20
115.6936621239
 10
342.3589082825
 20
115.84438933
 10
341.5075149312
 20
116.0693917108
 10
340.6427394657
 20
116.3676853882
 10
339.7683633291
 20
116.7379659998
 10
338.8882099457
 20
117.1786144027
 10
338.0061280024
 20
117.6877037535
 10
337.125974619
 20
118.263007934
 10
336.2515984824
 20
118.9020112855
 10
335.3868230169
 20
119.6019196089
 10
334.5354296656
 20
120.3596723831
 10
333.701141355
 20
121.1719561481
 10
332.8876062157
 20
122.0352189936
 10
332.0983816297
 20
122.9456860909
 10
331.3369186753
 20
123.899376199
 10
330.6065470365
 20
124.8921190738
 10
329.9104604424
 20
125.9195737031
 10
329.2517027027
 20
126.9772472894
 10
328.6331543973
 20
128.0605148952
 10
328.0575202806
 20
129.1646396668
 10
327.5273174541
 20
130.2847935476
 10
327.0448643599
 20
131.4160783896
 10
326.6122706425
 20
132.5535473721
 10
326.2314279244
 20
133.6922266327
 10
325.9040015337
 20
134.8271370165
 10
325.6314232228
 20
135.9533158494
 10
325.4148849072
 20
137.0658386378
 10
325.255333454
 20
138.1598406026
 10
325.153466541
 20
139.2305379516
 10
325.1097296063
 20
140.2732487976
 10
325.1243139005
 20
141.2834136316
 10
325.19715565
 20
142.2566152596
 10
325.3279363365
 20
143.1885981186
 10
325.5160840893
 20
144.0752868847
 10
325.7607761861
 20
144.9128042935
 10
326.0609426507
 20
145.6974880945
 10
326.4152709315
 20
146.425907065
 10
326.5662396923
 20
146.6913938377
  0
ARC
  5
217
330
1F
100
AcDbEntity
  8
0
  6
Continuous
 62
     8
370
    18
100
AcDbCircle
 10
359.3495176055
 20
144.8940149464
 30
0.0
 40
32.58492431544622
100
AcDbArc
 50
189.9535953274
 51
230.0287778526
  0
LWPOLYLINE
  5
218
330
1F
100
AcDbEntity
  8
0
  6
Continuous
 62
     8
370
    18
100
AcDbPolyline
 90
       40
 70
   128
 43
0.0
 10
344.6025411962
 20
115.6276270155
 10
344.0378857899
 20
115.6357251074
 10
343.2243456911
 20
115.7115185092
 10
342.3900522945
 20
115.8622466342
 10
341.5386537529
 20
116.0872503867
 10
340.6738730156
 20
116.3855458825
 10
339.7994915486
 20
116.7558287514
 10
338.9193327997
 20
117.1964798405
 10
338.037245479
 20
117.7055722948
 10
337.15708673
 20
118.2808799826
 10
336.2827052631
 20
118.9198872295
 10
335.4179245257
 20
119.6197998197
 10
334.5665259842
 20
120.3775572133
 10
333.7322325876
 20
121.1898459301
 10
332.9186924888
 20
122.0531140383
 10
332.1294630915
 20
122.963586686
 10
331.3679954952
 20
123.917282608
 10
330.6376194038
 20
124.9100315346
 10
329.9415285663
 20
125.9374924276
 10
329.2827668106
 20
126.9951724616
 10
328.6642147344
 20
128.0784466712
 10
328.0885771085
 20
129.1825781738
 10
327.5583710498
 20
130.3027388833
 10
327.0759150145
 20
131.4340306218
 10
326.64331866
 20
132.5715065386
 10
326.2624736202
 20
133.7101927407
 10
325.9350452334
 20
134.8451100432
 10
325.6624652608
 20
135.9712957415
 10
325.4459256252
 20
137.083825312
 10
325.2863731993
 20
138.1778339461
 10
325.1845056653
 20
139.2485378222
 10
325.140768464
 20
140.2912550249
 10
325.1553528471
 20
141.301426017
 10
325.2281950407
 20
142.2746335778
 10
325.3589765244
 20
143.2066221184
 10
325.5471254242
 20
144.0933162899
 10
325.7918190127
 20
144.9308388043
 10
326.0919873072
 20
145.7155273889
 10
326.4463177481
 20
146.4439508
 10
326.6161227868
 20
146.7410215706
  0
LWPOLYLINE
  5
219
330
1F
100
AcDbEntity
  8
0
  6
Continuous
 62
     8
370
    18
100
AcDbPolyline
 90
       41
 70
   128
 43
0.0
 10
345.1046781658
 20
115.8589781583
 10
345.0376425406
 20
115.8554817066
 10
344.2521473119
 20
115.8560064652
 10
343.4424564056
 20
115.9314412572
 10
342.612110394
 20
116.0814562255
 10
341.7647401689
 20
116.3053953928
 10
340.9040510646
 20
116.60227953
 10
340.0338066557
 20
116.9708104385
 10
339.1578122995
 20
117.4093766262
 10
338.2798984965
 20
117.9160603549
 10
337.4039041403
 20
118.4886460255
 10
336.5336597314
 20
119.1246298666
 10
335.6729706271
 20
119.8212308826
 10
334.825600402
 20
120.5754030146
 10
333.9952543903
 20
121.3838484597
 10
333.185563484
 20
122.2430320916
 10
332.4000682554
 20
123.149196919
 10
331.6422034752
 20
124.0983805137
 10
330.9152830933
 20
125.0864323372
 10
330.2224857476
 20
126.1090318904
 10
329.5668408645
 20
127.1617076055
 10
328.9512154124
 20
128.2398563996
 10
328.3783013647
 20
129.3387638023
 10
327.8506039288
 20
130.4536245711
 10
327.3704305912
 20
131.5795637035
 10
326.9398810279
 20
132.7116577542
 10
326.5608379224
 20
133.8449563639
 10
326.234958734
 20
134.9745039063
 10
325.9636684492
 20
136.0953611572
 10
325.7481533516
 20
137.2026268931
 10
325.5893558338
 20
138.2914593227
 10
325.487970277
 20
139.3570972587
 10
325.4444400144
 20
140.3948809378
 10
325.4589553927
 20
141.4002723958
 10
325.5314529399
 20
142.3688753117
 10
325.6616156428
 20
143.2964542314
 10
325.8488743328
 20
144.1789530884
 10
326.0924101754
 20
145.0125129396
 10
326.3911582503
 20
145.79348884
 10
326.7438122082
 20
146.5184657806
 10
327.082690969
 20
147.085067378
  0
LWPOLYLINE
  5
21A
330
1F
100
AcDbEntity
  8
0
  6
Continuous
 62
     8
370
    18
100
AcDbPolyline
 90
       41
 70
   128
 43
0.0
 10
327.2241175029
 20
147.0839234092
 10
326.8532495771
 20
146.469247883
 10
326.5025342573
 20
145.7482563447
 10
326.2054284846
 20
144.9715736887
 10
325.9632314271
 20
144.1425961506
 10
325.7770021508
 20
143.2649486382
 10
325.647554989
 20
142.3424688809
 10
325.5754559812
 20
141.3791906478
 10
325.561020398
 20
140.3793261097
 10
325.6043113625
 20
139.3472474196
 10
325.7051395744
 20
138.2874675952
 10
325.8630641375
 20
137.2046207839
 10
326.077394488
 20
136.1034419994
 10
326.3471934137
 20
134.9887464163
 10
326.6712811525
 20
133.8654083148
 10
327.0482405513
 20
132.7383397665
 10
327.4764232625
 20
131.6124691554
 10
327.9539569521
 20
130.4927196273
 10
328.4787534867
 20
129.383987562
 10
329.0485180646
 20
128.2911211626
 10
329.6607592504
 20
127.2188992559
 10
330.312799869
 20
126.1720103954
 10
331.0017887127
 20
125.1550323598
 10
331.7247130086
 20
124.1724121353
 10
332.4784115928
 20
123.22844647
 10
333.2595887331
 20
122.3272630857
 10
334.0648285406
 20
121.472802628
 10
334.8906099065
 20
120.6688014351
 10
335.733321899
 20
119.9187751996
 10
336.589279553
 20
119.2260035954
 10
337.4547399834
 20
118.5935159365
 10
338.3259187521
 20
118.0240779305
 10
339.1990064158
 20
117.5201795849
 10
340.0701851845
 20
117.0840243189
 10
340.9356456149
 20
116.7175193286
 10
341.7916032689
 20
116.422267247
 10
342.6343152614
 20
116.1995591364
 10
343.4600966273
 20
116.0503688426
 10
344.2653364348
 20
115.9753487369
 10
345.0465135751
 20
115.974826863
 10
345.1744385796
 20
115.9820076582
  0
LWPOLYLINE
  5
21B
330
1F
100
AcDbEntity
  8
0
  6
Continuous
 62
     8
370
    18
100
AcDbPolyline
 90
       41
 70
   128
 43
0.0
 10
327.4405844929
 20
147.0776118296
 10
327.2798877777
 20
146.8415392527
 10
326.8864837889
 20
146.1694732092
 10
326.545957731
 20
145.4385498976
 10
326.2598304758
 20
144.6520337988
 10
326.0293799372
 20
143.8134376846
 10
325.8556353632
 20
142.9265069287
 10
325.7393727392
 20
141.9952027793
 10
325.6811113225
 20
141.0236846668
 10
325.6811113225
 20
140.0162916269
 10
325.7393727392
 20
138.9775229215
 10
325.8556353632
 20
137.9120179437
 10
326.0293799372
 20
136.8245354975
 10
326.2598304758
 20
135.7199325434
 10
326.545957731
 20
134.6031425064
 10
326.8864837889
 20
133.479153242
 10
327.2798877777
 20
132.3529847589
 10
327.7244126594
 20
131.2296667991
 10
328.2180730781
 20
130.1142163732
 10
328.7586642266
 20
129.0116153536
 10
329.3437716935
 20
127.9267882242
 10
329.9707822468
 20
126.8645800862
 10
330.6368955053
 20
125.829735019
 10
331.3391364453
 20
124.826874892
 10
332.0743686885
 20
123.8604787218
 10
332.839308509
 20
122.9348626684
 10
333.6305395
 20
122.0541607579
 10
334.4445278318
 20
121.2223064186
 10
335.2776380349
 20
120.443014914
 10
336.1261492369
 20
119.7197667492
 10
336.9862717808
 20
119.055792126
 10
337.8541641505
 20
118.4540565163
 10
338.7259501281
 20
117.9172474173
 10
339.5977361056
 20
117.4477623489
 10
340.4656284753
 20
117.0476981453
 10
341.3257510192
 20
116.7188415904
 10
342.1742622212
 20
116.4626614374
 10
343.0073724243
 20
116.280301849
 10
343.8213607561
 20
116.1725772874
 10
344.6125917471
 20
116.1399688766
 10
345.2772647254
 20
116.1725977353
  0
LWPOLYLINE
  5
21C
330
1F
100
AcDbEntity
  8
0
  6
Continuous
 62
     8
370
    18
100
AcDbPolyline
 90
       41
 70
   128
 43
0.0
 10
345.3722390375
 20
116.359436029
 10
344.6670105726
 20
116.3226704011
 10
343.8816914905
 20
116.3550351688
 10
343.0737851055
 20
116.4619548355
 10
342.2468997239
 20
116.642951872
 10
341.4047284162
 20
116.8972179017
 10
340.5510325242
 20
117.2236173107
 10
339.6896248608
 20
117.6206923201
 10
338.8243526819
 20
118.0866694963
 10
337.9590805029
 20
118.6194676724
 10
337.0976728395
 20
119.2167072422
 10
336.2439769475
 20
119.8757207889
 10
335.4018056399
 20
120.593564998
 10
334.5749202582
 20
121.3670338029
 10
333.7670138732
 20
122.1926727044
 10
332.9816947911
 20
123.0667941985
 10
332.2224704375
 20
123.9854942465
 10
331.4927316926
 20
124.9446697109
 10
330.7957377468
 20
125.9400366814
 10
330.1346015443
 20
126.9671496074
 10
329.5122758798
 20
128.0214211531
 10
328.9315402109
 20
129.0981426861
 10
328.3949882439
 20
130.1925053064
 10
327.9050163504
 20
131.2996213251
 10
327.4638128636
 20
132.4145460931
 10
327.0733483054
 20
133.5323000859
 10
326.7353665854
 20
134.6478911428
 10
326.4513772119
 20
135.7563367632
 10
326.2226485505
 20
136.85268636
 10
326.0502021588
 20
137.9320433698
 10
325.9348082243
 20
138.989587122
 10
325.8769821244
 20
140.0205943697
 10
325.8769821244
 20
141.020460384
 10
325.9348082243
 20
141.9847195208
 10
326.0502021588
 20
142.9090651646
 10
326.2226485505
 20
143.7893689633
 10
326.4513772119
 20
144.6216992666
 10
326.7353665854
 20
145.4023386852
 10
327.0733483054
 20
146.127800694
 10
327.4638128636
 20
146.7948452036
 10
327.6498749117
 20
147.0663784618
  0
ARC
  5
21D
330
1F
100
AcDbEntity
  8
0
  6
Continuous
 62
     8
370
    18
100
AcDbCircle
 10
356.7105297253
 20
143.3783319582
 30
0.0
 40
30.95313817411012
100
AcDbArc
 50
197.8613708354
 51
223.4228792562
  0
LWPOLYLINE
  5
21E
330
1F
100
AcDbEntity
  8
0
  6
Continuous
 62
     8
370
    18
100
AcDbPolyline
 90
       40
 70
   128
 43
0.0
 10
345.4637605274
 20
116.550488767
 10
345.0936993781
 20
116.5393831131
 10
344.3072256623
 20
116.5717954658
 10
343.4981314342
 20
116.6788723336
 10
342.670030305
 20
116.8601354853
 10
341.8266207754
 20
117.1147753555
 10
340.9716697171
 20
117.4416546608
 10
340.1089955491
 20
117.839313479
 10
339.2424511835
 20
118.305975769
 10
338.3759068179
 20
118.839557304
 10
337.5132326499
 20
119.4376749792
 10
336.6582815916
 20
120.0976574559
 10
335.8148720619
 20
120.8165570922
 10
334.9867709328
 20
121.5911631077
 10
334.1776767046
 20
122.418015924
 10
333.3912029889
 20
123.2934226156
 10
332.6308623679
 20
124.2134734037
 10
331.9000507076
 20
125.1740591183
 10
331.2020319902
 20
126.1708895502
 10
330.5399237368
 20
127.1995126129
 10
329.9166830835
 20
128.255334226
 10
329.3350935744
 20
129.3336388338
 10
328.7977527295
 20
130.4296104663
 10
328.3070604433
 20
131.5383542481
 10
327.8652082668
 20
132.6549182603
 10
327.474169619
 20
133.7743156569
 10
327.1356909735
 20
134.8915469375
 10
326.851284058
 20
136.001622276
 10
326.622219103
 20
137.0995838063
 10
326.449519168
 20
138.1805277659
 10
326.3339555729
 20
139.2396263965
 10
326.2760444528
 20
140.2721495065
 10
326.2760444528
 20
141.2734855972
 10
326.3339555729
 20
142.2391624585
 10
326.449519168
 20
143.164867143
 10
326.622219103
 20
144.0464652289
 10
326.851284058
 20
144.8800192852
 10
327.1356909735
 20
145.6618064571
 10
327.474169619
 20
146.3883350933
 10
327.8610871669
 20
147.0500470486
  0
LWPOLYLINE
  5
21F
330
1F
100
AcDbEntity
  8
0
  6
Continuous
 62
     8
370
    18
100
AcDbPolyline
 90
       41
 70
   128
 43
0.0
 10
345.7242769804
 20
117.1670531318
 10
345.525109866
 20
117.1515802661
 10
344.7681038598
 20
117.1411579603
 10
343.9866766118
 20
117.2048725534
 10
343.184393595
 20
117.3424333304
 10
342.3649154429
 20
117.5532126329
 10
341.5319812465
 20
117.8362487234
 10
340.6893914933
 20
118.1902501731
 10
339.8409907271
 20
118.6136017545
 10
338.9906500061
 20
119.1043718115
 10
338.14224924
 20
119.6603210729
 10
337.2996594868
 20
120.2789128697
 10
336.4667252903
 20
120.9573247095
 10
335.6472471383
 20
121.6924611545
 10
334.8449641215
 20
122.4809679459
 10
334.0635368734
 20
123.3192473079
 10
333.3065308673
 20
124.2034743642
 10
332.5774001479
 20
125.1296145895
 10
331.8794715716
 20
126.0934422183
 10
331.2159296262
 20
127.0905595262
 10
330.5898019016
 20
128.1164168957
 10
330.0039452749
 20
129.1663335749
 10
329.4610328755
 20
130.2355190347
 10
328.9635418883
 20
131.3190948272
 10
328.5137422503
 20
132.4121168445
 10
328.1136862944
 20
133.5095978779
 10
327.7651993839
 20
134.6065303731
 10
327.4698715848
 20
135.6979092788
 10
327.2290504101
 20
136.7787548833
 10
327.0438346715
 20
137.844135536
 10
326.915069466
 20
138.8891901494
 10
326.8433423197
 20
139.9091503789
 10
326.828980507
 20
140.89936238
 10
326.8720495578
 20
141.8553080425
 10
326.9723529577
 20
142.7726256054
 10
327.1294330454
 20
143.6471295593
 10
327.3425731004
 20
144.4748297431
 10
327.6108006135
 20
145.2519495506
 10
327.9328917242
 20
145.9749431626
 10
328.3073768046
 20
146.6405117249
 10
328.5252803323
 20
146.9671743923
  0
LWPOLYLINE
  5
220
330
1F
100
AcDbEntity
  8
0
  6
Continuous
 62
     8
370
    18
100
AcDbPolyline
 90
       40
 70
   128
 43
0.0
 10
328.7310340636
 20
146.9321234715
 10
328.4010437273
 20
146.433839209
 10
328.0354292489
 20
145.7569864632
 10
327.7231303324
 20
145.0226173439
 10
327.4656030598
 20
144.234155819
 10
327.2640481419
 20
143.3952780602
 10
327.1194053208
 20
142.5098953028
 10
327.0323489881
 20
141.5821356099
 10
327.0032850407
 20
140.6163246255
 10
327.0323489881
 20
139.6169654062
 10
327.1194053208
 20
138.588717426
 10
327.2640481419
 20
137.5363748516
 10
327.4656030598
 20
136.46484419
 10
327.7231303324
 20
135.3791214117
 10
328.0354292489
 20
134.2842686575
 10
328.4010437273
 20
133.1853906364
 10
328.8182691043
 20
132.0876108248
 10
329.2851600826
 20
130.9960475792
 10
329.7995398008
 20
129.9157902711
 10
330.3590099834
 20
128.8518755589
 10
330.9609621219
 20
127.8092639041
 10
331.6025896378
 20
126.7928164434
 10
332.2809009673
 20
125.8072723242
 10
332.9927335099
 20
124.8572266081
 10
333.7347683736
 20
123.9471088467
 10
334.5035458495
 20
123.0811624292
 10
335.295481542
 20
122.2634247976
 10
336.1068830814
 20
121.4977086222
 10
336.9339673391
 20
120.7875840252
 10
337.7728780665
 20
120.1363619353
 10
338.6197038746
 20
119.5470786505
 10
339.4704964705
 20
119.0224816815
 10
340.3212890663
 20
118.5650169416
 10
341.1681148744
 20
118.1768173426
 10
342.0070256018
 20
117.85969285
 10
342.8341098595
 20
117.6151220449
 10
343.6455113989
 20
117.4442452291
 10
344.4374470914
 20
117.3478591092
 10
345.2062245673
 20
117.3264130818
 10
345.7968590652
 20
117.3627442301
  0
LWPOLYLINE
  5
221
330
1F
100
AcDbEntity
  8
0
  6
Continuous
 62
     8
370
    18
100
AcDbPolyline
 90
       47
 70
   128
 43
0.0
 10
378.8793063202
 20
124.329173072
 10
379.3765507159
 20
124.3553428968
 10
380.3555859841
 20
124.468493395
 10
381.3293122984
 20
124.6628746451
 10
382.2934718013
 20
124.9376366674
 10
383.2438484687
 20
125.2915779975
 10
384.1762865453
 20
125.72315094
 10
385.0867087165
 20
126.2304683361
 10
385.9711339378
 20
126.8113118161
 10
386.8256948429
 20
127.4631414992
 10
387.6466546542
 20
128.1831071
 10
388.4304235234
 20
128.9680603921
 10
389.1735742287
 20
129.8145689745
 10
389.8728571611
 20
130.7189312806
 10
390.5252145343
 20
131.677192764
 10
391.1277937555
 20
132.6851631913
 10
391.677959899
 20
133.738434964
 10
392.1733072283
 20
134.8324023928
 10
392.6116697155
 20
135.9622818365
 10
392.9911305131
 20
137.1231326197
 10
393.3100303355
 20
138.3098786373
 10
393.5669747149
 20
139.517330551
 10
393.760840099
 20
140.7402084806
 10
393.8907787637
 20
141.9731650923
 10
393.9562225203
 20
143.2108089804
 10
393.9568851999
 20
144.4477282431
 10
393.8927639048
 20
145.6785141472
 10
393.7641390212
 20
146.8977847792
 10
393.5715729928
 20
148.1002085787
 10
393.3159078619
 20
149.2805276524
 10
392.9982615872
 20
150.4335807653
 10
392.6200231549
 20
151.5543259096
 10
392.1828465055
 20
152.6378623519
 10
391.6886433012
 20
153.679452063
 10
391.1395745668
 20
154.6745404361
 10
390.5380412404
 20
155.618776203
 10
389.886673674
 20
156.508030461
 10
389.1883201322
 20
157.3384147273
 10
388.4460343375
 20
158.1062979429
 10
387.6630621168
 20
158.8083223498
 10
386.8428272083
 20
159.441418174
 10
385.9889162906
 20
160.0028170485
 10
385.1050632988
 20
160.4900641189
 10
384.1951330973
 20
160.9010287776
 10
383.2631045793
 20
161.2339139809
 10
382.3130532684
 20
161.4872641063
 10
382.3001194376
 20
161.4901355897
  0
LWPOLYLINE
  5
222
330
1F
100
AcDbEntity
  8
0
  6
Continuous
 62
     8
370
    18
100
AcDbPolyline
 90
       36
 70
   128
 43
0.0
 10
384.0951926352
 20
125.6270959192
 10
384.3163543219
 20
125.7372801642
 10
385.2253364454
 20
126.243795118
 10
386.1083627394
 20
126.8237198569
 10
386.9615719545
 20
127.4745185173
 10
387.781233224
 20
128.1933453225
 10
388.5637623776
 20
128.9770570256
 10
389.3057376146
 20
129.8222266547
 10
390.0039144659
 20
130.7251584982
 10
390.6552399818
 20
131.6819042648
 10
391.2568660816
 20
132.6882803487
 10
391.8061620074
 20
133.7398861234
 10
392.3007258279
 20
134.8321231844
 10
392.7383949413
 20
135.9602154568
 10
393.117255532
 20
137.1192300803
 10
393.435650939
 20
138.3040989788
 10
393.6921889002
 20
139.5096410221
 10
393.8857476404
 20
140.7305846815
 10
394.0154807764
 20
141.961591081
 10
394.0808210182
 20
143.197277343
 10
394.0814826497
 20
144.4322401258
 10
394.0174627776
 20
145.6610792513
 10
393.8890413446
 20
146.8784213187
 10
393.6967799048
 20
148.078943201
 10
393.4415191688
 20
149.2573953213
 10
393.1243753266
 20
150.4086246084
 10
392.7467351678
 20
151.5275970295
 10
392.3102500165
 20
152.609419603
 10
391.8168285112
 20
153.649361794
 10
391.2686282588
 20
154.6428761998
 10
390.6680463994
 20
155.5856184349
 10
390.0177091246
 20
156.4734661271
 10
389.3204601939
 20
157.3025369446
 10
388.5793484995
 20
158.0692055715
 10
387.7976147343
 20
158.7701195611
 10
387.1958637308
 20
159.243994516
  0
LWPOLYLINE
  5
223
330
1F
100
AcDbEntity
  8
0
  6
Continuous
 62
     8
370
    18
100
AcDbPolyline
 90
       20
 70
   128
 43
0.0
 10
349.9416557417
 20
122.5149554448
 10
349.9126806368
 20
121.4668521378
 10
349.8258696736
 20
120.4563309005
 10
349.6815654551
 20
119.4873797987
 10
349.4803374844
 20
118.5638228397
 10
349.2229799163
 20
117.6893048809
 10
348.9105084234
 20
116.8672772451
 10
348.5441561881
 20
116.1009840998
 10
348.1253690351
 20
115.3934496541
 10
347.6557997262
 20
114.747466223
 10
347.1373014369
 20
114.1655832082
 10
346.5719204429
 20
113.650097036
 10
345.9618880448
 20
113.2030420949
 10
345.3096117618
 20
112.8261827064
 10
344.6176658304
 20
112.5210061624
 10
343.888781045
 20
112.2887168553
 10
343.1258339808
 20
112.1302315249
 10
342.3318356415
 20
112.0461756403
 10
341.5099195756
 20
112.0368809317
 10
340.8003126241
 20
112.0868835212
  0
LWPOLYLINE
  5
224
330
1F
100
AcDbEntity
  8
0
  6
Continuous
 62
     8
370
    18
100
AcDbPolyline
 90
       45
 70
   128
 43
0.0
 10
321.6632120993
 20
145.2450919843
 10
321.9715757488
 20
145.8782840682
 10
322.3903629017
 20
146.585818514
 10
322.8599322106
 20
147.231801945
 10
323.3784305
 20
147.8136849598
 10
323.943811494
 20
148.329171132
 10
324.553843892
 20
148.7762260732
 10
325.2061201751
 20
149.1530854616
 10
325.8980661065
 20
149.4582620056
 10
326.6269508919
 20
149.6905513127
 10
327.3898979561
 20
149.8490366432
 10
328.1838962954
 20
149.9330925277
 10
329.0058123613
 20
149.9423872363
 10
329.8524024264
 20
149.8768840868
 10
330.7203253867
 20
149.7368415903
 10
331.6061559466
 20
149.5228124306
 10
332.5063981376
 20
149.235641283
 10
333.4174991152
 20
148.8764614808
 10
334.3358631799
 20
148.4466905425
 10
335.2578659684
 20
147.9480245778
 10
336.179868757
 20
147.3824315933
 10
337.0982328217
 20
146.7521437262
 10
338.0093337993
 20
146.0596484348
 10
338.9095759903
 20
145.3076786816
 10
339.7954065502
 20
144.4992021476
 10
340.6633295105
 20
143.6374095204
 10
341.5099195756
 20
142.7257019018
 10
342.3318356415
 20
141.7676773852
 10
343.1258339808
 20
140.7671168557
 10
343.888781045
 20
139.7279690687
 10
344.6176658304
 20
138.6543350656
 10
345.3096117618
 20
137.5504519894
 10
345.9618880448
 20
136.4206763623
 10
346.5719204429
 20
135.2694668925
 10
347.1373014369
 20
134.1013668779
 10
347.6557997262
 20
132.9209862756
 10
348.1253690352
 20
131.7329835085
 10
348.5441561881
 20
130.5420470808
 10
348.9105084234
 20
129.3528770746
 10
349.2229799163
 20
128.1701666005
 10
349.4803374844
 20
126.9985832765
 10
349.6815654551
 20
125.8427508067
 10
349.8258696736
 20
124.7072307338
 10
349.9126806368
 20
123.5965044367
 10
349.9416557417
 20
122.5149554448
  0
LWPOLYLINE
  5
225
330
1F
100
AcDbEntity
  8
0
  6
Continuous
 62
     8
370
    18
100
AcDbPolyline
 90
       14
 70
   128
 43
0.0
 10
351.6809679775
 20
122.6748455105
 10
351.6522957055
 20
121.606065022
 10
351.5663855523
 20
120.5743565948
 10
351.4235571092
 20
119.5835582521
 10
351.2243417075
 20
118.6373558287
 10
350.9694804415
 20
117.7392692599
 10
350.6599214119
 20
116.8926394867
 10
350.2968161986
 20
116.1006160274
 10
349.8815155768
 20
115.3661452613
 10
349.4155644922
 20
114.6919594678
 10
348.9006963134
 20
114.0805666626
 10
348.3388263837
 20
113.5342412668
 10
347.7320448964
 20
113.0550156469
 10
347.1631359394
 20
112.6904667122
  0
LWPOLYLINE
  5
226
330
1F
100
AcDbEntity
  8
0
  6
Continuous
 62
     8
370
    18
100
AcDbPolyline
 90
       40
 70
   128
 43
0.0
 10
325.3532035054
 20
150.4434161864
 10
325.7894353992
 20
150.6771747661
 10
326.4982755744
 20
150.9814135324
 10
327.2434524755
 20
151.2134461341
 10
328.0221939953
 20
151.3724093949
 10
328.8316031642
 20
151.4577119609
 10
329.668668927
 20
151.469036501
 10
330.5302773441
 20
151.4063408871
 10
331.4132231755
 20
151.269858351
 10
332.3142218048
 20
151.0600966168
 10
333.2299214579
 20
150.7778360119
 10
334.1569156719
 20
150.4241265642
 10
335.0917559675
 20
150.0002840961
 10
336.0309646774
 20
149.5078853295
 10
336.9710478835
 20
148.9487620201
 10
337.9085084144
 20
148.3249941434
 10
338.8398588556
 20
147.6389021568
 10
339.7616345221
 20
146.8930383675
 10
340.670406348
 20
146.0901774379
 10
341.5627936423
 20
145.2333060633
 10
342.4354766657
 20
144.3256118616
 10
343.28520898
 20
143.3704715147
 10
344.1088295253
 20
142.3714382076
 10
344.903274379
 20
141.3322284097
 10
345.665588154
 20
140.2567080497
 10
346.3929349931
 20
139.148878134
 10
347.0826091182
 20
138.0128598626
 10
347.7320448964
 20
136.8528792982
 10
348.3388263837
 20
135.6732516447
 10
348.9006963134
 20
134.4783651943
 10
349.4155644922
 20
133.2726650032
 10
349.8815155768
 20
132.0606363552
 10
350.2968161986
 20
130.8467880765
 10
350.6599214119
 20
129.6356357625
 10
350.9694804415
 20
128.4316849794
 10
351.2243417075
 20
127.239414503
 10
351.4235571092
 20
126.0632596579
 10
351.5663855523
 20
124.9075958173
 10
351.6522957055
 20
123.7767221267
 10
351.6809679775
 20
122.6748455105
  0
LWPOLYLINE
  5
227
330
1F
100
AcDbEntity
  8
0
  6
Continuous
 62
     8
370
    18
100
AcDbPolyline
 90
       14
 70
   128
 43
0.0
 10
355.9635284351
 20
125.1465046796
 10
355.9348561631
 20
124.0777241911
 10
355.8489460099
 20
123.0460157639
 10
355.7061175668
 20
122.0552174212
 10
355.5069021651
 20
121.1090149979
 10
355.2520408991
 20
120.2109284291
 10
354.9424818695
 20
119.3642986559
 10
354.5793766562
 20
118.5722751965
 10
354.1640760344
 20
117.8378044304
 10
353.6981249498
 20
117.163618637
 10
353.183256771
 20
116.5522258317
 10
352.6213868414
 20
116.005900436
 10
352.014605354
 20
115.5266748161
 10
351.445696397
 20
115.1621258813
  0
LWPOLYLINE
  5
228
330
1F
100
AcDbEntity
  8
0
  6
Continuous
 62
     8
370
    18
100
AcDbPolyline
 90
       40
 70
   128
 43
0.0
 10
329.6515048135
 20
152.9241863815
 10
330.0719958568
 20
153.1488339353
 10
330.7808360321
 20
153.4530727015
 10
331.5260129331
 20
153.6851053033
 10
332.3047544529
 20
153.8440685641
 10
333.1141636218
 20
153.9293711301
 10
333.9512293846
 20
153.9406956701
 10
334.8128378017
 20
153.8780000562
 10
335.6957836331
 20
153.7415175202
 10
336.5967822624
 20
153.531755786
 10
337.5124819155
 20
153.249495181
 10
338.4394761295
 20
152.8957857333
 10
339.3743164251
 20
152.4719432653
 10
340.313525135
 20
151.9795444987
 10
341.2536083411
 20
151.4204211893
 10
342.1910688721
 20
150.7966533126
 10
343.1224193132
 20
150.1105613259
 10
344.0441949797
 20
149.3646975367
 10
344.9529668056
 20
148.5618366071
 10
345.8453540999
 20
147.7049652325
 10
346.7180371233
 20
146.7972710308
 10
347.5677694376
 20
145.8421306839
 10
348.3913899829
 20
144.8430973767
 10
349.1858348366
 20
143.8038875788
 10
349.9481486116
 20
142.7283672188
 10
350.6754954507
 20
141.6205373031
 10
351.3651695759
 20
140.4845190318
 10
352.014605354
 20
139.3245384674
 10
352.6213868414
 20
138.1449108138
 10
353.183256771
 20
136.9500243635
 10
353.6981249498
 20
135.7443241723
 10
354.1640760344
 20
134.5322955243
 10
354.5793766562
 20
133.3184472457
 10
354.9424818695
 20
132.1072949317
 10
355.2520408991
 20
130.9033441485
 10
355.5069021651
 20
129.7110736721
 10
355.7061175668
 20
128.534918827
 10
355.8489460099
 20
127.3792549865
 10
355.9348561631
 20
126.2483812959
 10
355.9635284351
 20
125.1465046796
  0
LWPOLYLINE
  5
229
330
1F
100
AcDbEntity
  8
0
  6
Continuous
 62
     8
370
    18
100
AcDbPolyline
 90
       38
 70
   128
 43
0.0
 10
348.2410483245
 20
122.5667875056
 10
348.2121312716
 20
123.6142675047
 10
348.1255014012
 20
124.6907326846
 10
347.9815220689
 20
125.7916679762
 10
347.7807971742
 20
126.9124556744
 10
347.524168627
 20
128.048394806
 10
347.2127128166
 20
129.1947208475
 10
346.847736097
 20
130.3466257092
 10
346.4307693073
 20
131.4992779018
 10
345.9635613511
 20
132.6478428013
 10
345.448071861
 20
133.7875029274
 10
344.8864629792
 20
134.9134781496
 10
344.2810902882
 20
136.0210457364
 10
343.6344929318
 20
137.1055601644
 10
342.9493829637
 20
138.1624726033
 10
342.2286339734
 20
139.1873499949
 10
341.4752690326
 20
140.1758936474
 10
340.6924480157
 20
141.1239572651
 10
339.8834543461
 20
142.0275643397
 10
339.0516812243
 20
142.8829248291
 10
338.2006173959
 20
143.6864510542
 10
337.3338325183
 20
144.4347727467
 10
336.4549621886
 20
145.1247511854
 10
335.5676926944
 20
145.7534923609
 10
334.6757455522
 20
146.3183591143
 10
333.7828618983
 20
146.8169821981
 10
332.8927867972
 20
147.2472702137
 10
332.009253533
 20
147.6074183838
 10
331.1359679514
 20
147.8959161216
 10
330.2765929155
 20
148.1115533675
 10
329.434732943
 20
148.253425664
 10
328.6139190871
 20
148.3209379491
 10
327.8175941263
 20
148.3138070531
 10
327.0490981244
 20
148.2320628854
 10
326.3116544205
 20
148.0760483093
 10
325.60835611
 20
147.8464177043
 10
324.9421530702
 20
147.544134221
 10
324.7050638923
 20
147.4137963674
  0
LWPOLYLINE
  5
22A
330
1F
100
AcDbEntity
  8
0
  6
Continuous
 62
     8
370
    18
100
AcDbPolyline
 90
       13
 70
   128
 43
0.0
 10
344.2958144619
 20
113.6922817734
 10
344.8864629792
 20
114.0922624549
 10
345.448071861
 20
114.5699779474
 10
345.9635613511
 20
115.1146135141
 10
346.4307693073
 20
115.7238847644
 10
346.847736097
 20
116.3952362027
 10
347.2127128166
 20
117.125851948
 10
347.524168627
 20
117.9126675438
 10
347.7807971742
 20
118.7523828121
 10
347.9815220689
 20
119.6414756953
 10
348.1255014012
 20
120.5762170287
 10
348.2121312716
 20
121.5526861825
 10
348.2410483245
 20
122.5667875056
  0
LWPOLYLINE
  5
22B
330
1F
100
AcDbEntity
  8
0
  6
Continuous
 62
     8
370
    18
100
AcDbPolyline
 90
       18
 70
   128
 43
0.0
 10
349.400589815
 20
122.6733808827
 10
349.371847593
 20
121.64427121
 10
349.2857366618
 20
120.6524822692
 10
349.1426037597
 20
119.7020076441
 10
348.9430252324
 20
118.7966745607
 10
348.6878047122
 20
117.9401284757
 10
348.3779698821
 20
117.135818398
 10
348.0147683374
 20
116.3869830003
 10
347.5996625628
 20
115.6966375785
 10
347.1343240426
 20
115.0675619099
 10
346.6206265308
 20
114.5022890602
 10
346.0606385059
 20
114.0030951838
 10
345.4566148422
 20
113.571990358
 10
344.8109877297
 20
113.21071049
 10
344.126356881
 20
112.9207103262
 10
343.4054790627
 20
112.703157595
 10
342.6512569956
 20
112.5589283044
 10
342.1496883021
 20
112.5051725254
  0
LWPOLYLINE
  5
22C
330
1F
100
AcDbEntity
  8
0
  6
Continuous
 62
     8
370
    18
100
AcDbPolyline
 90
       43
 70
   128
 43
0.0
 10
322.7004439637
 20
146.2042220438
 10
322.8760044792
 20
146.4511432072
 10
323.365769071
 20
147.0486182697
 10
323.902882253
 20
147.5811197246
 10
324.4851812601
 20
148.0465033767
 10
325.1103213798
 20
148.4428952901
 10
325.7757853934
 20
148.7686993345
 10
326.4788937121
 20
149.022603612
 10
327.216815167
 20
149.2035857398
 10
327.9865784088
 20
149.3109169666
 10
328.7850838725
 20
149.3441651076
 10
329.6091162586
 20
149.3031962841
 10
330.4553574794
 20
149.1881754631
 10
331.3204000203
 20
148.999565793
 10
332.2007606602
 20
148.7381267382
 10
333.0928944975
 20
148.4049110216
 10
333.9932092241
 20
148.0012603853
 10
334.8980795905
 20
147.5288001879
 10
335.803862003
 20
146.9894328599
 10
336.7069091955
 20
146.3853302431
 10
337.6035849157
 20
145.7189248456
 10
338.4902785669
 20
144.9929000467
 10
339.3634197469
 20
144.210179292
 10
340.2194926241
 20
143.3739143217
 10
341.0550500953
 20
142.4874724798
 10
341.8667276655
 20
141.5544231546
 10
342.6512569956
 20
140.5785234065
 10
343.4054790627
 20
139.5637028393
 10
344.126356881
 20
138.5140477772
 10
344.8109877297
 20
137.4337848108
 10
345.4566148422
 20
136.3272637777
 10
346.0606385059
 20
135.1989402476
 10
346.6206265308
 20
134.0533575812
 10
347.1343240426
 20
132.8951286354
 10
347.5996625628
 20
131.7289171894
 10
348.0147683374
 20
130.5594191652
 10
348.3779698821
 20
129.3913437185
 10
348.6878047122
 20
128.2293942769
 10
348.9430252324
 20
127.0782496007
 10
349.1426037597
 20
125.9425449431
 10
349.2857366618
 20
124.8268533861
 10
349.371847593
 20
123.7356674257
 10
349.400589815
 20
122.6733808827
  0
LWPOLYLINE
  5
22D
330
1F
100
AcDbEntity
  8
0
  6
Continuous
 62
     8
370
    18
100
AcDbPolyline
 90
       47
 70
   128
 43
0.0
 10
324.2988668997
 20
146.5457365195
 10
323.7937410822
 20
146.1220910119
 10
323.2816478684
 20
145.5923184679
 10
322.8173898132
 20
144.9980245026
 10
322.4029549408
 20
144.3417539742
 10
322.0401179251
 20
143.6263171337
 10
321.7304324897
 20
142.8547775915
 10
321.4752247554
 20
142.0304391984
 10
321.2755875608
 20
141.1568318979
 10
321.132375783
 20
140.2376966107
 10
321.0462026769
 20
139.2769692151
 10
321.0174372488
 20
138.2787636934
 10
321.0462026769
 20
137.2473545148
 10
321.132375783
 20
136.1871583318
 10
321.2755875608
 20
135.1027150671
 10
321.4752247554
 20
133.9986684734
 10
321.7304324897
 20
132.8797462477
 10
322.0401179251
 20
131.7507397867
 10
322.4029549408
 20
130.6164836694
 10
322.8173898132
 20
129.4818349546
 10
323.2816478684
 20
128.3516523823
 10
323.7937410822
 20
127.2307755678
 10
324.3514765929
 20
126.1240042777
 10
324.9524660914
 20
125.0360778766
 10
325.5941360483
 20
123.9716550324
 10
326.2737387344
 20
122.935293767
 10
326.9883639867
 20
121.9314319386
 10
327.7349516701
 20
120.9643682376
 10
328.5103047816
 20
120.0382437792
 10
329.31110314
 20
119.1570243705
 10
330.1339176039
 20
118.3244835284
 10
330.9752247554
 20
117.5441863205
 10
331.8314219882
 20
116.8194740992
 10
332.6988429342
 20
116.1534501937
 10
333.5737731638
 20
115.5489666204
 10
334.4524660914
 20
115.0086118708
 10
335.331159019
 20
114.534699827
 10
336.2060892486
 20
114.1292598531
 10
337.0735101946
 20
113.7940281052
 10
337.9297074273
 20
113.5304400972
 10
338.7710145789
 20
113.3396245534
 10
339.5938290428
 20
113.2223985752
 10
340.3946274012
 20
113.1792641424
 10
341.1699805127
 20
113.2104059631
 10
341.9165681961
 20
113.3156906833
 10
342.6311934483
 20
113.4946674577
 10
343.2450332638
 20
113.718353235
  0
LWPOLYLINE
  5
22E
330
1F
100
AcDbEntity
  8
0
  6
Continuous
 62
     8
370
    18
100
AcDbPolyline
 90
       26
 70
   128
 43
0.0
 10
327.2648135932
 20
142.1889434363
 10
327.2880433229
 20
141.5970189372
 10
327.3748821634
 20
140.5072827133
 10
327.5192170217
 20
139.3929245898
 10
327.7204547948
 20
138.2585237034
 10
327.9777685535
 20
137.1087415504
 10
328.2901009405
 20
135.9483028326
 10
328.656168515
 20
134.7819760414
 10
329.0744670267
 20
133.6145538639
 10
329.5432775974
 20
132.4508334881
 10
330.0606737838
 20
131.2955968907
 10
330.6245294941
 20
130.1535911867
 10
331.2325277242
 20
129.0295091225
 10
331.882170079
 20
127.9279697924
 10
332.5707870386
 20
126.8534996578
 10
333.2955489283
 20
125.8105139469
 10
334.053477546
 20
124.8032985118
 10
334.8414584005
 20
123.8359922167
 10
335.6562535094
 20
122.9125699306
 10
336.4945147047
 20
122.0368261939
 10
337.3527973916
 20
121.2123596253
 10
338.2275747022
 20
120.4425581349
 10
339.115251989
 20
119.7305850022
 10
340.0121815957
 20
119.0793658773
 10
340.914677846
 20
118.4915767594
 10
340.9563736201
 20
118.4660392811
  0
LWPOLYLINE
  5
22F
330
1F
100
AcDbEntity
  8
0
  6
Continuous
 62
     8
370
    18
100
AcDbPolyline
 90
       35
 70
   128
 43
0.0
 10
346.0436130302
 20
118.1416088238
 10
345.8379197941
 20
118.1946333235
 10
344.9862288626
 20
118.4568340262
 10
344.12337329
 20
118.7903013965
 10
343.2530479564
 20
119.1936074758
 10
342.3789797284
 20
119.6650252457
 10
341.5049115004
 20
120.2025360229
 10
340.6345861668
 20
120.8038381037
 10
339.7717305942
 20
121.4663566203
 10
338.9200396626
 20
122.1872545667
 10
338.0831604435
 20
122.9634449472
 10
337.264676582
 20
123.7916039954
 10
336.4680929518
 20
124.6681854072
 10
335.6968206462
 20
125.5894355263
 10
334.9541623716
 20
126.5514094184
 10
334.2432983049
 20
127.5499877635
 10
333.567272475
 20
128.5808944959
 10
332.9289797284
 20
129.6397151146
 10
332.3311533325
 20
130.7219155873
 10
331.7763532719
 20
131.8228617653
 10
331.2669552855
 20
132.9378392282
 10
330.8051406937
 20
134.0620734711
 10
330.3928870575
 20
135.1907503506
 10
330.0319597103
 20
136.3190366988
 10
329.7239041983
 20
137.4421010206
 10
329.4700396626
 20
138.555134182
 10
329.2714531901
 20
139.6533700041
 10
329.1289951585
 20
140.7321056726
 10
329.043275595
 20
141.7867218757
 10
329.014661564
 20
142.812702585
 10
329.043275595
 20
143.8056543935
 10
329.1289951585
 20
144.7613253291
 10
329.2714531901
 20
145.6756230621
 10
329.4700396626
 20
146.5446324294
 10
329.5288734678
 20
146.7561409164
  0
ARC
  5
230
330
1F
100
AcDbEntity
  8
0
  6
Continuous
 62
     8
370
    18
100
AcDbCircle
 10
323.8395327387
 20
124.3976706764
 30
0.0
 40
32.61387161913354
100
AcDbArc
 50
17.4553506746
 51
42.8468521227
  0
LWPOLYLINE
  5
231
330
1F
100
AcDbEntity
  8
0
  6
Continuous
 62
     8
370
    18
100
AcDbPolyline
 90
       38
 70
   128
 43
0.0
 10
365.0002098742
 20
132.3208776386
 10
364.9714411139
 20
133.3629859454
 10
364.8852554992
 20
134.433930791
 10
364.7420145225
 20
135.5292202606
 10
364.5423189862
 20
136.6442603295
 10
364.2870064828
 20
137.7743741323
 10
363.9771478817
 20
138.9148215787
 10
363.6140428375
 20
140.060819236
 10
363.1992143391
 20
141.2075603917
 10
362.7344023212
 20
142.3502352148
 10
362.221556367
 20
143.48405093
 10
361.6628275306
 20
144.6042519203
 10
361.060559315
 20
145.7061396733
 10
360.4172778424
 20
146.7850924889
 10
359.7356812588
 20
147.836584864
 10
359.0186284172
 20
148.8562064741
 10
358.2691268864
 20
149.839680672
 10
357.4903203362
 20
150.7828824249
 10
356.685475352
 20
151.6818556171
 10
355.8579677334
 20
152.5328296425
 10
355.0112683349
 20
153.3322352202
 10
354.148928508
 20
154.0767193656
 10
353.2745652056
 20
154.7631594533
 10
352.3918458114
 20
155.3886763152
 10
351.5044727571
 20
155.950646316
 10
350.6161679938
 20
156.4467123583
 10
349.7306573803
 20
156.8747937687
 10
348.851655056
 20
157.2330950251
 10
347.982847862
 20
157.5201132873
 10
347.1278798776
 20
157.7346447012
 10
346.2903371357
 20
157.8757894474
 10
345.4737325816
 20
157.9429555157
 10
344.6814913386
 20
157.9358611884
 10
343.9169363418
 20
157.8545362215
 10
343.1832744005
 20
157.6993217202
 10
342.4835827479
 20
157.4708687081
 10
341.820796134
 20
157.1701353964
 10
341.584922798
 20
157.0404659421
  0
LWPOLYLINE
  5
232
330
1F
100
AcDbEntity
  8
0
  6
Continuous
 62
     8
370
    18
100
AcDbPolyline
 90
       14
 70
   128
 43
0.0
 10
361.018574975
 20
123.458281952
 10
361.060559315
 20
123.4831163452
 10
361.6628275306
 20
123.8898116907
 10
362.221556367
 20
124.3650773601
 10
362.7344023212
 20
124.906919924
 10
363.1992143391
 20
125.5130667063
 10
363.6140428375
 20
126.1809753168
 10
363.9771478817
 20
126.9078443146
 10
364.2870064828
 20
127.6906249587
 10
364.5423189862
 20
128.5260339948
 10
364.7420145225
 20
129.4105674273
 10
364.8852554992
 20
130.3405152154
 10
364.9714411139
 20
131.3119768351
 10
365.0002098742
 20
132.3208776386
  0
ARC
  5
233
330
1F
100
AcDbEntity
  8
0
  6
Continuous
 62
     8
370
    18
100
AcDbCircle
 10
369.6733662731
 20
150.8523745476
 30
0.0
 40
32.15002450009175
100
AcDbArc
 50
200.4550125408
 51
219.5273606392
  0
LWPOLYLINE
  5
234
330
1F
100
AcDbEntity
  8
0
  6
Continuous
 62
     8
370
    18
100
AcDbPolyline
 90
       34
 70
   128
 43
0.0
 10
365.2639710917
 20
132.5266026735
 10
365.2352995266
 20
133.5651902192
 10
365.1494050898
 20
134.6325168795
 10
365.0066480525
 20
135.7241059156
 10
364.8076271872
 20
136.8353788236
 10
364.5531772567
 20
137.9616745388
 10
364.2443655124
 20
139.0982689856
 10
363.882487218
 20
140.2403948918
 10
363.4690602168
 20
141.3832617845
 10
363.0058185655
 20
142.5220760827
 10
362.4947052605
 20
143.6520612035
 10
361.9378640885
 20
144.7684775967
 10
361.3376306351
 20
145.8666426239
 10
360.6965224878
 20
146.9419501992
 10
360.0172286771
 20
147.9898901092
 10
359.3025983972
 20
149.0060669295
 10
358.555629056
 20
149.9862184615
 10
357.7794537024
 20
150.926233609
 10
356.9773278856
 20
151.8221696218
 10
356.152616
 20
152.6702686329
 10
355.3087771739
 20
153.4669734203
 10
354.4493507606
 20
154.2089423273
 10
353.5779414931
 20
154.8930632784
 10
352.6982043648
 20
155.5164668326
 10
351.8138292988
 20
156.0765382188
 10
350.9285256716
 20
156.5709283028
 10
350.0460067542
 20
156.9975634409
 10
349.1699741377
 20
157.3546541771
 10
348.3041022073
 20
157.6407027487
 10
347.4520227307
 20
157.8545093686
 10
346.6173096255
 20
157.9951772575
 10
345.8034639685
 20
158.0621164054
 10
345.0138993111
 20
158.0550460463
 10
344.2804911243
 20
157.9784481969
  0
ARC
  5
235
330
1F
100
AcDbEntity
  8
0
  6
Continuous
 62
     8
370
    18
100
AcDbCircle
 10
353.7993497075
 20
131.9736497431
 30
0.0
 40
11.47794844153684
100
AcDbArc
 50
324.2918253369
 51
2.7613067781
  0
LWPOLYLINE
  5
236
330
1F
100
AcDbEntity
  8
0
  6
Continuous
 62
     8
370
    18
100
AcDbPolyline
 90
       34
 70
   128
 43
0.0
 10
366.1322915394
 20
133.4691230427
 10
366.103236505
 20
134.500231304
 10
366.016198452
 20
135.560368738
 10
365.8715579757
 20
136.6448996333
 10
365.669947552
 20
137.7490816124
 10
365.4122487722
 20
138.8680863684
 10
365.0995884873
 20
139.9970207782
 10
364.7333338812
 20
141.1309482988
 10
364.3150864922
 20
142.2649105538
 10
363.8466752096
 20
143.3939490147
 10
363.3301482768
 20
144.5131266837
 10
362.7677643347
 20
145.6175496814
 10
362.1619825452
 20
146.7023886472
 10
361.5154518378
 20
147.7628998563
 10
360.8309993269
 20
148.794445963
 10
360.1116179492
 20
149.7925162786
 10
359.3604533763
 20
150.7527464956
 10
358.5807902598
 20
151.6709377716
 10
357.7760378682
 20
152.5430750897
 10
356.949715179
 20
153.3653448154
 10
356.1054354909
 20
154.1341513724
 10
355.2468906242
 20
154.8461329651
 10
354.3778347772
 20
155.4981762793
 10
353.50206811
 20
156.0874300955
 10
352.6234201275
 20
156.6113177566
 10
351.7457329336
 20
157.0675484352
 10
350.8728444311
 20
157.4541271506
 10
350.0085715394
 20
157.7693634924
 10
349.156693504
 20
158.0118790124
 10
348.3209353707
 20
158.1806132519
 10
347.5049516972
 20
158.2748283789
 10
346.7123105724
 20
158.2941124147
 10
345.9464780144
 20
158.2383810352
 10
345.7036027211
 20
158.2040982076
  0
ARC
  5
237
330
1F
100
AcDbEntity
  8
0
  6
Continuous
 62
     8
370
    18
100
AcDbCircle
 10
354.9968236743
 20
132.9248467232
 30
0.0
 40
11.1487614239203
100
AcDbArc
 50
324.5392528165
 51
2.7982603096
  0
ARC
  5
238
330
1F
100
AcDbEntity
  8
0
  6
Continuous
 62
     8
370
    18
100
AcDbCircle
 10
370.0139658626
 20
151.0489499624
 30
0.0
 40
32.27806704358203
100
AcDbArc
 50
202.0308968026
 51
217.9514763774
  0
LWPOLYLINE
  5
239
330
1F
100
AcDbEntity
  8
0
  6
Continuous
 62
     8
370
    18
100
AcDbPolyline
 90
       11
 70
   128
 43
0.0
 10
366.3081323511
 20
133.606273066
 10
366.2791448695
 20
132.6110220972
 10
366.1923091795
 20
131.6535830789
 10
366.0480049915
 20
130.7381426482
 10
365.8468633111
 20
129.8687037933
 10
365.5897636795
 20
129.049068349
 10
365.2778303282
 20
128.2828203726
 10
364.9124272622
 20
127.5733104714
 10
364.4951522961
 20
126.9236411519
 10
364.0278300674
 20
126.3366532526
 10
363.7038105712
 20
125.9954628165
  0
LWPOLYLINE
  5
23A
330
1F
100
AcDbEntity
  8
0
  6
Continuous
 62
     8
370
    18
100
AcDbPolyline
 90
       35
 70
   128
 43
0.0
 10
345.1641056642
 20
158.1185840468
 10
345.4352859786
 20
158.1877429852
 10
346.1692507379
 20
158.317942662
 10
346.9333027392
 20
158.3735444664
 10
347.7241009774
 20
158.3543052658
 10
348.5381874931
 20
158.2603091885
 10
349.3720024931
 20
158.0919672553
 10
350.2218999166
 20
157.8500155826
 10
351.0841633782
 20
157.5355121636
 10
351.9550224194
 20
157.1498322417
 10
352.8306689952
 20
156.6946622971
 10
353.7072741257
 20
156.1719926721
 10
354.5810046399
 20
155.584108868
 10
355.4480399366
 20
154.9335815511
 10
356.3045886909
 20
154.2232553119
 10
357.1469054331
 20
153.4562362262
 10
357.9713069264
 20
152.6358782734
 10
358.7741882728
 20
151.76576867
 10
359.5520386766
 20
150.8497121839
 10
360.3014567957
 20
149.8917144972
 10
361.0191656155
 20
148.8959646899
 10
361.7020267779
 20
147.8668169226
 10
362.3470543047
 20
146.8087713966
 10
362.9514276547
 20
145.7264546757
 10
363.5125040571
 20
144.6245994557
 10
364.0278300674
 20
143.5080238691
 10
364.4951522961
 20
142.3816104167
 10
364.9124272622
 20
141.2502846181
 10
365.2778303282
 20
140.118993473
 10
365.5897636795
 20
138.9926838299
 10
365.8468633111
 20
137.8762807542
 10
366.0480049915
 20
136.7746659925
 10
366.1923091795
 20
135.6926566258
 10
366.2791448695
 20
134.6349840059
 10
366.3081323511
 20
133.606273066
  0
MTEXT
  5
23B
330
1F
100
AcDbEntity
  8
0
  6
Continuous
 62
     7
370
     0
100
AcDbMText
 10
360.0865338913
 20
174.8104335697
 30
0.0
 40
3.5
 41
0.0
 71
     2
 72
     1
  1
(1:2)
  7
SLDTEXTSTYLE0
 73
     1
 44
1.0
  0
LINE
  5
23C
330
1F
100
AcDbEntity
  8
0
  6
Continuous
 62
     7
370
    25
100
AcDbLine
 10
63.2194612758
 20
253.2376040131
 30
0.0
 11
63.2194612758
 21
173.4837265195
 31
0.0
  0
LINE
  5
23D
330
1F
100
AcDbEntity
  8
0
  6
Continuous
 62
     7
370
    25
100
AcDbLine
 10
75.8227662978
 20
174.7066608455
 30
0.0
 11
75.8227662978
 21
252.0146696872
 31
0.0
  0
LINE
  5
23E
330
1F
100
AcDbEntity
  8
0
  6
Continuous
 62
     7
370
    25
100
AcDbLine
 10
72.3877380965
 20
250.2238846212
 30
0.0
 11
72.3877380965
 21
176.4974459115
 31
0.0
  0
LINE
  5
23F
330
1F
100
AcDbEntity
  8
0
  6
Continuous
 62
     7
370
    25
100
AcDbLine
 10
68.1187396873
 20
176.6449654399
 30
0.0
 11
68.1187396873
 21
250.0763650927
 31
0.0
  0
ARC
  5
240
330
1F
100
AcDbEntity
  8
0
  6
Continuous
 62
     7
370
    25
100
AcDbCircle
 10
79.4775401739
 20
254.0071128732
 30
0.0
 40
0.3434390505499907
100
AcDbArc
 50
268.0634205299
 51
20.9858189555
  0
ARC
  5
241
330
1F
100
AcDbEntity
  8
0
  6
Continuous
 62
     7
370
    25
100
AcDbCircle
 10
79.4775401739
 20
172.7142176595
 30
0.0
 40
0.3434390505500163
100
AcDbArc
 50
339.0141810445
 51
91.9365794701
  0
ARC
  5
242
330
1F
100
AcDbEntity
  8
0
  6
Continuous
 62
     7
370
    25
100
AcDbCircle
 10
74.9874788769
 20
173.3329046456
 30
0.0
 40
0.8013577832639653
100
AcDbArc
 50
90.0
 51
295.7456652522
  0
ARC
  5
243
330
1F
100
AcDbEntity
  8
0
  6
Continuous
 62
     7
370
    25
100
AcDbCircle
 10
74.9874788769
 20
253.3884258871
 30
0.0
 40
0.8013577832639669
100
AcDbArc
 50
64.2543347478
 51
270.0
  0
LWPOLYLINE
  5
244
330
1F
100
AcDbEntity
  8
0
  6
Continuous
 62
     7
370
    25
100
AcDbPolyline
 90
        3
 70
   128
 43
0.0
 10
76.9102428436
 20
172.9710460743
 10
76.8531080654
 20
172.9787997699
 10
76.8185801201
 20
172.9939540498
  0
LWPOLYLINE
  5
245
330
1F
100
AcDbEntity
  8
0
  6
Continuous
 62
     7
370
    25
100
AcDbPolyline
 90
        3
 70
   128
 43
0.0
 10
76.8185801201
 20
253.7273764828
 10
76.8726451289
 20
253.7474133864
 10
76.9102428436
 20
253.7502844584
  0
ARC
  5
246
330
1F
100
AcDbEntity
  8
0
  6
Continuous
 62
     7
370
    25
100
AcDbCircle
 10
76.4977387521
 20
253.7404232607
 30
0.0
 40
0.1717195249854541
100
AcDbArc
 50
244.254334748
 51
299.9999999765
  0
ARC
  5
247
330
1F
100
AcDbEntity
  8
0
  6
Continuous
 62
     7
370
    25
100
AcDbCircle
 10
76.4977387521
 20
172.9809072719
 30
0.0
 40
0.1717195249854541
100
AcDbArc
 50
60.0000000235
 51
115.745665252
  0
ARC
  5
248
330
1F
100
AcDbEntity
  8
0
  6
Continuous
 62
     7
370
    25
100
AcDbCircle
 10
64.5439167137
 20
251.4925561134
 30
0.0
 40
0.2289593666488159
100
AcDbArc
 50
61.999999998
 51
90.0
  0
ARC
  5
249
330
1F
100
AcDbEntity
  8
0
  6
Continuous
 62
     7
370
    25
100
AcDbCircle
 10
64.5439167137
 20
175.2287744193
 30
0.0
 40
0.2289593666488225
100
AcDbArc
 50
270.0
 51
298.000000002
  0
ARC
  5
24A
330
1F
100
AcDbEntity
  8
0
  6
Continuous
 62
     7
370
    25
100
AcDbCircle
 10
78.5513991685
 20
170.7536843219
 30
0.0
 40
0.2861992083455388
100
AcDbArc
 50
210.0
 51
330.0000000078
  0
ARC
  5
24B
330
1F
100
AcDbEntity
  8
0
  6
Continuous
 62
     7
370
    25
100
AcDbCircle
 10
78.5513991685
 20
255.9676462108
 30
0.0
 40
0.2861992083509957
100
AcDbArc
 50
29.9999999941
 51
149.9999999981
  0
ARC
  5
24C
330
1F
100
AcDbEntity
  8
0
  6
Continuous
 62
     7
370
    25
100
AcDbCircle
 10
76.0282236858
 20
170.7468644748
 30
0.0
 40
0.2861992082804543
100
AcDbArc
 50
209.9999999941
 51
330.0000000157
  0
ARC
  5
24D
330
1F
100
AcDbEntity
  8
0
  6
Continuous
 62
     7
370
    25
100
AcDbCircle
 10
76.0282236858
 20
255.9744660583
 30
0.0
 40
0.2861992081056469
100
AcDbArc
 50
29.9999999237
 51
150.0000000665
  0
ARC
  5
24E
330
1F
100
AcDbEntity
  8
0
  6
Continuous
 62
     7
370
    25
100
AcDbCircle
 10
73.529189974
 20
170.7468644748
 30
0.0
 40
0.2861992083436579
100
AcDbArc
 50
210.0000000008
 51
330.0000000003
  0
ARC
  5
24F
330
1F
100
AcDbEntity
  8
0
  6
Continuous
 62
     7
370
    25
100
AcDbCircle
 10
73.529189974
 20
255.9744660579
 30
0.0
 40
0.2861992083436615
100
AcDbArc
 50
29.9999999997
 51
149.9999999992
  0
ARC
  5
250
330
1F
100
AcDbEntity
  8
0
  6
Continuous
 62
     7
370
    25
100
AcDbCircle
 10
69.9554329278
 20
170.3226562085
 30
0.0
 40
0.1144796833413915
100
AcDbArc
 50
144.9999999772
 51
294.9999999872
  0
ARC
  5
251
330
1F
100
AcDbEntity
  8
0
  6
Continuous
 62
     7
370
    25
100
AcDbCircle
 10
69.9554329278
 20
256.3986743241
 30
0.0
 40
0.1144796833411439
100
AcDbArc
 50
65.0000000124
 51
215.0000000232
  0
ARC
  5
252
330
1F
100
AcDbEntity
  8
0
  6
Continuous
 62
     7
370
    25
100
AcDbCircle
 10
67.8495878693
 20
170.7468644746
 30
0.0
 40
0.2861992082810058
100
AcDbArc
 50
209.9999999942
 51
330.0000000156
  0
ARC
  5
253
330
1F
100
AcDbEntity
  8
0
  6
Continuous
 62
     7
370
    25
100
AcDbCircle
 10
67.8495878693
 20
255.9744660584
 30
0.0
 40
0.2861992081077954
100
AcDbArc
 50
29.9999999243
 51
150.0000000659
  0
ARC
  5
254
330
1F
100
AcDbEntity
  8
0
  6
Continuous
 62
     7
370
    25
100
AcDbCircle
 10
64.6150112371
 20
170.7468644747
 30
0.0
 40
0.2861992083476335
100
AcDbArc
 50
210.000000002
 51
329.9999999993
  0
ARC
  5
255
330
1F
100
AcDbEntity
  8
0
  6
Continuous
 62
     7
370
    25
100
AcDbCircle
 10
64.6150112371
 20
255.974466058
 30
0.0
 40
0.2861992083446693
100
AcDbArc
 50
29.9999999997
 51
149.999999999
  0
ARC
  5
256
330
1F
100
AcDbEntity
  8
0
  6
Continuous
 62
     7
370
    25
100
AcDbCircle
 10
70.738900099
 20
251.1450186761
 30
0.0
 40
0.2289593667153987
100
AcDbArc
 50
43.9389210195
 51
90.0
  0
ARC
  5
257
330
1F
100
AcDbEntity
  8
0
  6
Continuous
 62
     7
370
    25
100
AcDbCircle
 10
70.738900099
 20
175.5763118566
 30
0.0
 40
0.2289593667154089
100
AcDbArc
 50
270.0
 51
316.0610789805
  0
ARC
  5
258
330
1F
100
AcDbEntity
  8
0
  6
Continuous
 62
     7
370
    25
100
AcDbCircle
 10
72.3304982548
 20
250.745416488
 30
0.0
 40
0.1717195249849071
100
AcDbArc
 50
346.4168995958
 51
75.2994334219
  0
ARC
  5
259
330
1F
100
AcDbEntity
  8
0
  6
Continuous
 62
     7
370
    25
100
AcDbCircle
 10
72.3304982548
 20
175.9759140447
 30
0.0
 40
0.1717195249849035
100
AcDbArc
 50
284.700566578
 51
13.5831004042
  0
LWPOLYLINE
  5
25A
330
1F
100
AcDbEntity
  8
0
  6
Continuous
 62
     7
370
    25
100
AcDbPolyline
 90
        3
 70
   128
 43
0.0
 10
71.6936509598
 20
175.6313025959
 10
71.6362150056
 20
175.6262415827
 10
71.6056298401
 20
175.6315326
  0
LWPOLYLINE
  5
25B
330
1F
100
AcDbEntity
  8
0
  6
Continuous
 62
     7
370
    25
100
AcDbPolyline
 90
        3
 70
   128
 43
0.0
 10
71.6056298401
 20
251.0897979327
 10
71.6630385607
 20
251.0951590414
 10
71.6936509597
 20
251.0900279368
  0
ARC
  5
25C
330
1F
100
AcDbEntity
  8
0
  6
Continuous
 62
     7
370
    25
100
AcDbCircle
 10
68.5673121293
 20
250.8015796262
 30
0.0
 40
0.5723984166424696
100
AcDbArc
 50
89.9999999991
 51
190.9999999994
  0
ARC
  5
25D
330
1F
100
AcDbEntity
  8
0
  6
Continuous
 62
     7
370
    25
100
AcDbCircle
 10
68.5673121293
 20
175.9197509065
 30
0.0
 40
0.572398416642461
100
AcDbArc
 50
169.0000000006
 51
270.0000000009
  0
ARC
  5
25E
330
1F
100
AcDbEntity
  8
0
  6
Continuous
 62
     7
370
    25
100
AcDbCircle
 10
65.2576299077
 20
170.7151158286
 30
0.0
 40
0.2861992083608759
100
AcDbArc
 50
89.9999999945
 51
149.9999999949
  0
LINE
  5
25F
330
1F
100
AcDbEntity
  8
0
  6
Continuous
 62
     7
370
    25
100
AcDbLine
 10
65.0097741227
 20
170.8582154328
 30
0.0
 11
64.8628670221
 21
170.6037648705
 31
0.0
  0
LINE
  5
260
330
1F
100
AcDbEntity
  8
0
  6
Continuous
 62
     7
370
    25
100
AcDbLine
 10
64.3671554522
 20
170.6037648705
 30
0.0
 11
63.4685290974
 21
172.1602313739
 31
0.0
  0
ARC
  5
261
330
1F
100
AcDbEntity
  8
0
  6
Continuous
 62
     7
370
    25
100
AcDbCircle
 10
64.6582368651
 20
172.8471094739
 30
0.0
 40
1.373756199883109
100
AcDbArc
 50
186.000000001
 51
210.0000000009
  0
LINE
  5
262
330
1F
100
AcDbEntity
  8
0
  6
Continuous
 62
     7
370
    25
100
AcDbLine
 10
63.2920062454
 20
172.7035128494
 30
0.0
 11
63.2288682511
 21
173.3042307387
 31
0.0
  0
ARC
  5
263
330
1F
100
AcDbEntity
  8
0
  6
Continuous
 62
     7
370
    25
100
AcDbCircle
 10
64.9366565256
 20
173.4837265195
 30
0.0
 40
1.717195249839184
100
AcDbArc
 50
171.2885026267
 51
186.0000000087
  0
LINE
  5
264
330
1F
100
AcDbEntity
  8
0
  6
Continuous
 62
     7
370
    25
100
AcDbLine
 10
63.3866077578
 20
174.7053665925
 30
0.0
 11
63.239271675
 21
173.743811496
 31
0.0
  0
ARC
  5
265
330
1F
100
AcDbEntity
  8
0
  6
Continuous
 62
     7
370
    25
100
AcDbCircle
 10
63.7296101816
 20
174.6528094029
 30
0.0
 40
0.3470056497243093
100
AcDbArc
 50
90.0000000009
 51
171.2885026204
  0
LINE
  5
266
330
1F
100
AcDbEntity
  8
0
  6
Continuous
 62
     7
370
    25
100
AcDbLine
 10
64.5439167137
 20
174.9998150526
 30
0.0
 11
63.7296101816
 21
174.9998150526
 31
0.0
  0
LINE
  5
267
330
1F
100
AcDbEntity
  8
0
  6
Continuous
 62
     7
370
    25
100
AcDbLine
 10
67.1545041275
 20
176.3575358479
 30
0.0
 11
64.6514066254
 21
175.0266152976
 31
0.0
  0
ARC
  5
268
330
1F
100
AcDbEntity
  8
0
  6
Continuous
 62
     7
370
    25
100
AcDbCircle
 10
66.8857793483
 20
176.862933652
 30
0.0
 40
0.5723984166424768
100
AcDbArc
 50
297.9999999974
 51
346.231542418
  0
ARC
  5
269
330
1F
100
AcDbEntity
  8
0
  6
Continuous
 62
     7
370
    25
100
AcDbCircle
 10
67.7753006374
 20
176.6449654399
 30
0.0
 40
0.3434390499494296
100
AcDbArc
 50
349.0000000018
 51
166.2315424214
  0
LINE
  5
26A
330
1F
100
AcDbEntity
  8
0
  6
Continuous
 62
     7
370
    25
100
AcDbLine
 10
68.1124297447
 20
176.5794341799
 30
0.0
 11
68.0054302838
 21
176.0289696733
 31
0.0
  0
LINE
  5
26B
330
1F
100
AcDbEntity
  8
0
  6
Continuous
 62
     7
370
    25
100
AcDbLine
 10
70.738900099
 20
175.34735249
 30
0.0
 11
68.5673121294
 21
175.3473524899
 31
0.0
  0
LINE
  5
26C
330
1F
100
AcDbEntity
  8
0
  6
Continuous
 62
     7
370
    25
100
AcDbLine
 10
71.0946503063
 20
175.6155243666
 30
0.0
 11
70.9037691409
 21
175.417438981
 31
0.0
  0
ARC
  5
26D
330
1F
100
AcDbEntity
  8
0
  6
Continuous
 62
     7
370
    25
100
AcDbCircle
 10
71.3007366085
 20
175.4169332719
 30
0.0
 40
0.2861992083435757
100
AcDbArc
 50
74.9999999834
 51
136.0610789439
  0
LINE
  5
26E
330
1F
100
AcDbEntity
  8
0
  6
Continuous
 62
     7
370
    25
100
AcDbLine
 10
71.6056298401
 20
175.6315326
 30
0.0
 11
71.3748104144
 21
175.6933804787
 31
0.0
  0
LINE
  5
26F
330
1F
100
AcDbEntity
  8
0
  6
Continuous
 62
     7
370
    25
100
AcDbLine
 10
72.374075091
 20
175.8098157165
 30
0.0
 11
71.6936509598
 21
175.6313025959
 31
0.0
  0
LINE
  5
270
330
1F
100
AcDbEntity
  8
0
  6
Continuous
 62
     7
370
    25
100
AcDbLine
 10
72.4974148386
 20
176.0162433057
 30
0.0
 11
72.394142018
 21
176.4436735635
 31
0.0
  0
ARC
  5
271
330
1F
100
AcDbEntity
  8
0
  6
Continuous
 62
     7
370
    25
100
AcDbCircle
 10
72.6166974632
 20
176.4974459115
 30
0.0
 40
0.2289593666521051
100
AcDbArc
 50
75.9023045184
 51
193.583100384
  0
LINE
  5
272
330
1F
100
AcDbEntity
  8
0
  6
Continuous
 62
     7
370
    25
100
AcDbLine
 10
73.5243535281
 20
176.5055666238
 30
0.0
 11
72.6724664703
 21
176.7195094371
 31
0.0
  0
ARC
  5
273
330
1F
100
AcDbEntity
  8
0
  6
Continuous
 62
     7
370
    25
100
AcDbCircle
 10
73.594064787
 20
176.7831460309
 30
0.0
 40
0.2861992083214185
100
AcDbArc
 50
255.9023045253
 51
335.7584100107
  0
LINE
  5
274
330
1F
100
AcDbEntity
  8
0
  6
Continuous
 62
     7
370
    25
100
AcDbLine
 10
74.3453897133
 20
177.7546272386
 30
0.0
 11
73.8550276132
 21
176.6656369239
 31
0.0
  0
LINE
  5
275
330
1F
100
AcDbEntity
  8
0
  6
Continuous
 62
     7
370
    25
100
AcDbLine
 10
74.5000370885
 20
178.0980662886
 30
0.0
 11
74.3453897133
 21
177.7546272386
 31
0.0
  0
ARC
  5
276
330
1F
100
AcDbEntity
  8
0
  6
Continuous
 62
     7
370
    25
100
AcDbCircle
 10
74.7609999146
 20
177.9805571816
 30
0.0
 40
0.2861992083435751
100
AcDbArc
 50
35.0000000016
 51
155.7584100007
  0
LINE
  5
277
330
1F
100
AcDbEntity
  8
0
  6
Continuous
 62
     7
370
    25
100
AcDbLine
 10
75.6011419194
 20
177.2796831449
 30
0.0
 11
74.9954405811
 21
178.1447143036
 31
0.0
  0
ARC
  5
278
330
1F
100
AcDbEntity
  8
0
  6
Continuous
 62
     7
370
    25
100
AcDbCircle
 10
75.2260368528
 20
177.0170317497
 30
0.0
 40
0.457918733418524
100
AcDbArc
 50
3.4434035112
 51
34.9999999972
  0
LINE
  5
279
330
1F
100
AcDbEntity
  8
0
  6
Continuous
 62
     7
370
    25
100
AcDbLine
 10
75.8217328983
 20
174.7410405582
 30
0.0
 11
75.6831288665
 21
177.0445355198
 31
0.0
  0
ARC
  5
27A
330
1F
100
AcDbEntity
  8
0
  6
Continuous
 62
     7
370
    25
100
AcDbCircle
 10
75.2503678812
 20
174.7066608455
 30
0.0
 40
0.5723984166424415
100
AcDbArc
 50
270.0000000001
 51
3.4434035112
  0
LINE
  5
27B
330
1F
100
AcDbEntity
  8
0
  6
Continuous
 62
     7
370
    25
100
AcDbLine
 10
75.2503678812
 20
174.1342624289
 30
0.0
 11
74.9874788769
 21
174.1342624289
 31
0.0
  0
LINE
  5
27C
330
1F
100
AcDbEntity
  8
0
  6
Continuous
 62
     7
370
    25
100
AcDbLine
 10
76.4231477206
 20
173.1355803894
 30
0.0
 11
75.3355703574
 21
172.611096764
 31
0.0
  0
LINE
  5
27D
330
1F
100
AcDbEntity
  8
0
  6
Continuous
 62
     7
370
    25
100
AcDbLine
 10
76.8185801201
 20
172.9939540498
 30
0.0
 11
76.5835985145
 21
173.1296207429
 31
0.0
  0
LINE
  5
27E
330
1F
100
AcDbEntity
  8
0
  6
Continuous
 62
     7
370
    25
100
AcDbLine
 10
79.4659342513
 20
173.0574605531
 30
0.0
 11
76.9102428436
 21
172.9710460743
 31
0.0
  0
LINE
  5
27F
330
1F
100
AcDbEntity
  8
0
  6
Continuous
 62
     7
370
    25
100
AcDbLine
 10
79.7981986012
 20
172.5912194725
 30
0.0
 11
79.5507826644
 21
171.9462017967
 31
0.0
  0
ARC
  5
280
330
1F
100
AcDbEntity
  8
0
  6
Continuous
 62
     7
370
    25
100
AcDbCircle
 10
78.2681489559
 20
172.4381945457
 30
0.0
 40
1.373756199881666
100
AcDbArc
 50
330.0000000083
 51
339.0141809952
  0
LINE
  5
281
330
1F
100
AcDbEntity
  8
0
  6
Continuous
 62
     7
370
    25
100
AcDbLine
 10
79.4578567237
 20
171.751316446
 30
0.0
 11
78.7992549535
 21
170.6105847178
 31
0.0
  0
LINE
  5
282
330
1F
100
AcDbEntity
  8
0
  6
Continuous
 62
     7
370
    25
100
AcDbLine
 10
78.3035433836
 20
170.6105847177
 30
0.0
 11
78.1566362829
 21
170.8650352801
 31
0.0
  0
ARC
  5
283
330
1F
100
AcDbEntity
  8
0
  6
Continuous
 62
     7
370
    25
100
AcDbCircle
 10
77.9087804979
 20
170.7219356759
 30
0.0
 40
0.2861992083448349
100
AcDbArc
 50
29.9999999997
 51
90.3156413843
  0
LINE
  5
284
330
1F
100
AcDbEntity
  8
0
  6
Continuous
 62
     7
370
    25
100
AcDbLine
 10
77.9072038398
 20
171.0081305413
 30
0.0
 11
76.6692656984
 21
171.0013106941
 31
0.0
  0
ARC
  5
285
330
1F
100
AcDbEntity
  8
0
  6
Continuous
 62
     7
370
    25
100
AcDbCircle
 10
76.6708423563
 20
170.7151158288
 30
0.0
 40
0.2861992083435698
100
AcDbArc
 50
90.3156413437
 51
149.9999999944
  0
LINE
  5
286
330
1F
100
AcDbEntity
  8
0
  6
Continuous
 62
     7
370
    25
100
AcDbLine
 10
76.4229865714
 20
170.858215433
 30
0.0
 11
76.2760794708
 21
170.6037648707
 31
0.0
  0
LINE
  5
287
330
1F
100
AcDbEntity
  8
0
  6
Continuous
 62
     7
370
    25
100
AcDbLine
 10
75.7803679009
 20
170.6037648707
 30
0.0
 11
75.6334608002
 21
170.858215433
 31
0.0
  0
ARC
  5
288
330
1F
100
AcDbEntity
  8
0
  6
Continuous
 62
     7
370
    25
100
AcDbCircle
 10
75.3856050153
 20
170.7151158288
 30
0.0
 40
0.2861992083435325
100
AcDbArc
 50
30.0000000024
 51
90.000000001
  0
LINE
  5
289
330
1F
100
AcDbEntity
  8
0
  6
Continuous
 62
     7
370
    25
100
AcDbLine
 10
75.3856050153
 20
171.0013150372
 30
0.0
 11
74.1718086445
 21
171.0013150371
 31
0.0
  0
ARC
  5
28A
330
1F
100
AcDbEntity
  8
0
  6
Continuous
 62
     7
370
    25
100
AcDbCircle
 10
74.1718086445
 20
170.7151158288
 30
0.0
 40
0.2861992083746827
100
AcDbArc
 50
89.9999999951
 51
149.9999999944
  0
LINE
  5
28B
330
1F
100
AcDbEntity
  8
0
  6
Continuous
 62
     7
370
    25
100
AcDbLine
 10
73.9239528596
 20
170.858215433
 30
0.0
 11
73.7770457589
 21
170.6037648707
 31
0.0
  0
LINE
  5
28C
330
1F
100
AcDbEntity
  8
0
  6
Continuous
 62
     7
370
    25
100
AcDbLine
 10
73.281334189
 20
170.6037648707
 30
0.0
 11
73.1344270884
 21
170.858215433
 31
0.0
  0
ARC
  5
28D
330
1F
100
AcDbEntity
  8
0
  6
Continuous
 62
     7
370
    25
100
AcDbCircle
 10
72.8865713035
 20
170.7151158288
 30
0.0
 40
0.2861992083435609
100
AcDbArc
 50
30.0000000023
 51
90.000000001
  0
LINE
  5
28E
330
1F
100
AcDbEntity
  8
0
  6
Continuous
 62
     7
370
    25
100
AcDbLine
 10
72.8865713034
 20
171.0013150371
 30
0.0
 11
71.745152327
 21
171.0013150371
 31
0.0
  0
ARC
  5
28F
330
1F
100
AcDbEntity
  8
0
  6
Continuous
 62
     7
370
    25
100
AcDbCircle
 10
71.7451523271
 20
170.7151158288
 30
0.0
 40
0.286199208343567
100
AcDbArc
 50
90.0000000363
 51
115.0000000351
  0
LINE
  5
290
330
1F
100
AcDbEntity
  8
0
  6
Continuous
 62
     7
370
    25
100
AcDbLine
 10
71.624199315
 20
170.9745003999
 30
0.0
 11
70.0038141326
 21
170.2189023801
 31
0.0
  0
LINE
  5
291
330
1F
100
AcDbEntity
  8
0
  6
Continuous
 62
     7
370
    25
100
AcDbLine
 10
70.1647439081
 20
170.8211725049
 30
0.0
 11
69.8616566612
 21
170.3883190574
 31
0.0
  0
ARC
  5
292
330
1F
100
AcDbEntity
  8
0
  6
Continuous
 62
     7
370
    25
100
AcDbCircle
 10
70.0709676415
 20
170.8868353537
 30
0.0
 40
0.1144796833467296
100
AcDbArc
 50
324.999999999
 51
90.0000000011
  0
LINE
  5
293
330
1F
100
AcDbEntity
  8
0
  6
Continuous
 62
     7
370
    25
100
AcDbLine
 10
70.0709676415
 20
171.0013150371
 30
0.0
 11
68.4922065399
 21
171.0013150371
 31
0.0
  0
ARC
  5
294
330
1F
100
AcDbEntity
  8
0
  6
Continuous
 62
     7
370
    25
100
AcDbCircle
 10
68.4922065398
 20
170.7151158287
 30
0.0
 40
0.2861992083730627
100
AcDbArc
 50
89.9999999945
 51
149.9999999949
  0
LINE
  5
295
330
1F
100
AcDbEntity
  8
0
  6
Continuous
 62
     7
370
    25
100
AcDbLine
 10
68.2443507549
 20
170.8582154329
 30
0.0
 11
68.0974436543
 21
170.6037648706
 31
0.0
  0
LINE
  5
296
330
1F
100
AcDbEntity
  8
0
  6
Continuous
 62
     7
370
    25
100
AcDbLine
 10
67.6017320844
 20
170.6037648705
 30
0.0
 11
67.4548249837
 21
170.8582154329
 31
0.0
  0
ARC
  5
297
330
1F
100
AcDbEntity
  8
0
  6
Continuous
 62
     7
370
    25
100
AcDbCircle
 10
67.2069691988
 20
170.7151158287
 30
0.0
 40
0.2861992083435325
100
AcDbArc
 50
30.0000000036
 51
90.0000000009
  0
LINE
  5
298
330
1F
100
AcDbEntity
  8
0
  6
Continuous
 62
     7
370
    25
100
AcDbLine
 10
67.2069691988
 20
171.0013150371
 30
0.0
 11
65.2576299077
 21
171.001315037
 31
0.0
  0
LINE
  5
299
330
1F
100
AcDbEntity
  8
0
  6
Continuous
 62
     7
370
    25
100
AcDbLine
 10
70.0038141326
 20
256.5024281526
 30
0.0
 11
71.624199315
 21
255.7468301328
 31
0.0
  0
LINE
  5
29A
330
1F
100
AcDbEntity
  8
0
  6
Continuous
 62
     7
370
    25
100
AcDbLine
 10
69.8616566612
 20
256.3330114753
 30
0.0
 11
70.1647439081
 21
255.9001580277
 31
0.0
  0
LINE
  5
29B
330
1F
100
AcDbEntity
  8
0
  6
Continuous
 62
     7
370
    25
100
AcDbLine
 10
78.7992549535
 20
256.1107458149
 30
0.0
 11
79.4578567237
 21
254.9700140867
 31
0.0
  0
LINE
  5
29C
330
1F
100
AcDbEntity
  8
0
  6
Continuous
 62
     7
370
    25
100
AcDbLine
 10
73.7770457589
 20
256.117565662
 30
0.0
 11
73.9239528596
 21
255.8631150997
 31
0.0
  0
LINE
  5
29D
330
1F
100
AcDbEntity
  8
0
  6
Continuous
 62
     7
370
    25
100
AcDbLine
 10
76.2760794708
 20
256.117565662
 30
0.0
 11
76.4229865714
 21
255.8631150997
 31
0.0
  0
LINE
  5
29E
330
1F
100
AcDbEntity
  8
0
  6
Continuous
 62
     7
370
    25
100
AcDbLine
 10
68.0974436543
 20
256.1175656621
 30
0.0
 11
68.2443507549
 21
255.8631150998
 31
0.0
  0
LINE
  5
29F
330
1F
100
AcDbEntity
  8
0
  6
Continuous
 62
     7
370
    25
100
AcDbLine
 10
64.8628670221
 20
256.1175656622
 30
0.0
 11
65.0097741227
 21
255.8631150998
 31
0.0
  0
LINE
  5
2A0
330
1F
100
AcDbEntity
  8
0
  6
Continuous
 62
     7
370
    25
100
AcDbLine
 10
75.6334608002
 20
255.8631150997
 30
0.0
 11
75.7803679009
 21
256.117565662
 31
0.0
  0
LINE
  5
2A1
330
1F
100
AcDbEntity
  8
0
  6
Continuous
 62
     7
370
    25
100
AcDbLine
 10
67.4548249837
 20
255.8631150998
 30
0.0
 11
67.6017320844
 21
256.1175656622
 31
0.0
  0
LINE
  5
2A2
330
1F
100
AcDbEntity
  8
0
  6
Continuous
 62
     7
370
    25
100
AcDbLine
 10
73.1344270884
 20
255.8631150997
 30
0.0
 11
73.281334189
 21
256.117565662
 31
0.0
  0
LINE
  5
2A3
330
1F
100
AcDbEntity
  8
0
  6
Continuous
 62
     7
370
    25
100
AcDbLine
 10
63.4685290974
 20
254.5610991588
 30
0.0
 11
64.3671554522
 21
256.1175656622
 31
0.0
  0
LINE
  5
2A4
330
1F
100
AcDbEntity
  8
0
  6
Continuous
 62
     7
370
    25
100
AcDbLine
 10
78.1566362829
 20
255.8562952526
 30
0.0
 11
78.3035433836
 21
256.1107458149
 31
0.0
  0
LINE
  5
2A5
330
1F
100
AcDbEntity
  8
0
  6
Continuous
 62
     7
370
    25
100
AcDbLine
 10
74.9874788769
 20
252.5870681038
 30
0.0
 11
75.2503678812
 21
252.5870681038
 31
0.0
  0
ARC
  5
2A6
330
1F
100
AcDbEntity
  8
0
  6
Continuous
 62
     7
370
    25
100
AcDbCircle
 10
78.2681489559
 20
254.2831359869
 30
0.0
 40
1.37375619988171
100
AcDbArc
 50
20.9858190048
 51
29.9999999917
  0
LINE
  5
2A7
330
1F
100
AcDbEntity
  8
0
  6
Continuous
 62
     7
370
    25
100
AcDbLine
 10
76.6692656984
 20
255.7200198385
 30
0.0
 11
77.9072038398
 21
255.7131999913
 31
0.0
  0
LINE
  5
2A8
330
1F
100
AcDbEntity
  8
0
  6
Continuous
 62
     7
370
    25
100
AcDbLine
 10
68.4922065399
 20
255.7200154956
 30
0.0
 11
70.0709676415
 21
255.7200154956
 31
0.0
  0
LINE
  5
2A9
330
1F
100
AcDbEntity
  8
0
  6
Continuous
 62
     7
370
    25
100
AcDbLine
 10
74.1718086445
 20
255.7200154955
 30
0.0
 11
75.3856050153
 21
255.7200154955
 31
0.0
  0
LINE
  5
2AA
330
1F
100
AcDbEntity
  8
0
  6
Continuous
 62
     7
370
    25
100
AcDbLine
 10
71.745152327
 20
255.7200154956
 30
0.0
 11
72.8865713034
 21
255.7200154955
 31
0.0
  0
ARC
  5
2AB
330
1F
100
AcDbEntity
  8
0
  6
Continuous
 62
     7
370
    25
100
AcDbCircle
 10
65.2576299077
 20
256.006214704
 30
0.0
 40
0.2861992083608474
100
AcDbArc
 50
210.0000000051
 51
270.0000000055
  0
ARC
  5
2AC
330
1F
100
AcDbEntity
  8
0
  6
Continuous
 62
     7
370
    25
100
AcDbCircle
 10
73.5940647871
 20
249.9381845019
 30
0.0
 40
0.286199208238065
100
AcDbArc
 50
24.2415899754
 51
104.0976954887
  0
LINE
  5
2AD
330
1F
100
AcDbEntity
  8
0
  6
Continuous
 62
     7
370
    25
100
AcDbLine
 10
79.5507826644
 20
254.775128736
 30
0.0
 11
79.7981986012
 21
254.1301110602
 31
0.0
  0
LINE
  5
2AE
330
1F
100
AcDbEntity
  8
0
  6
Continuous
 62
     7
370
    25
100
AcDbLine
 10
75.3355703574
 20
254.1102337687
 30
0.0
 11
76.4231477206
 21
253.5857501433
 31
0.0
  0
LINE
  5
2AF
330
1F
100
AcDbEntity
  8
0
  6
Continuous
 62
     7
370
    25
100
AcDbLine
 10
63.2288682511
 20
253.417099794
 30
0.0
 11
63.2920062454
 21
254.0178176833
 31
0.0
  0
LINE
  5
2B0
330
1F
100
AcDbEntity
  8
0
  6
Continuous
 62
     7
370
    25
100
AcDbLine
 10
76.9102428436
 20
253.7502844584
 30
0.0
 11
79.4659342513
 21
253.6638699796
 31
0.0
  0
LINE
  5
2B1
330
1F
100
AcDbEntity
  8
0
  6
Continuous
 62
     7
370
    25
100
AcDbLine
 10
76.5835985145
 20
253.5917097898
 30
0.0
 11
76.8185801201
 21
253.7273764828
 31
0.0
  0
LINE
  5
2B2
330
1F
100
AcDbEntity
  8
0
  6
Continuous
 62
     7
370
    25
100
AcDbLine
 10
63.239271675
 20
252.9775190367
 30
0.0
 11
63.3866077578
 21
252.0159639402
 31
0.0
  0
LINE
  5
2B3
330
1F
100
AcDbEntity
  8
0
  6
Continuous
 62
     7
370
    25
100
AcDbLine
 10
64.6514066254
 20
251.694715235
 30
0.0
 11
67.1545041275
 21
250.3637946848
 31
0.0
  0
LINE
  5
2B4
330
1F
100
AcDbEntity
  8
0
  6
Continuous
 62
     7
370
    25
100
AcDbLine
 10
63.7296101816
 20
251.7215154801
 30
0.0
 11
64.5439167137
 21
251.7215154801
 31
0.0
  0
LINE
  5
2B5
330
1F
100
AcDbEntity
  8
0
  6
Continuous
 62
     7
370
    25
100
AcDbLine
 10
68.5673121294
 20
251.3739780428
 30
0.0
 11
70.738900099
 21
251.3739780427
 31
0.0
  0
LINE
  5
2B6
330
1F
100
AcDbEntity
  8
0
  6
Continuous
 62
     7
370
    25
100
AcDbLine
 10
70.9037691409
 20
251.3038915517
 30
0.0
 11
71.0946503063
 21
251.1058061661
 31
0.0
  0
LINE
  5
2B7
330
1F
100
AcDbEntity
  8
0
  6
Continuous
 62
     7
370
    25
100
AcDbLine
 10
71.6936509597
 20
251.0900279368
 30
0.0
 11
72.374075091
 21
250.9115148161
 31
0.0
  0
LINE
  5
2B8
330
1F
100
AcDbEntity
  8
0
  6
Continuous
 62
     7
370
    25
100
AcDbLine
 10
71.3748104144
 20
251.027950054
 30
0.0
 11
71.6056298401
 21
251.0897979327
 31
0.0
  0
LINE
  5
2B9
330
1F
100
AcDbEntity
  8
0
  6
Continuous
 62
     7
370
    25
100
AcDbLine
 10
75.6831288665
 20
249.6767950128
 30
0.0
 11
75.8217328983
 21
251.9802899745
 31
0.0
  0
LINE
  5
2BA
330
1F
100
AcDbEntity
  8
0
  6
Continuous
 62
     7
370
    25
100
AcDbLine
 10
72.394142018
 20
250.2776569692
 30
0.0
 11
72.4974148386
 21
250.7050872269
 31
0.0
  0
LINE
  5
2BB
330
1F
100
AcDbEntity
  8
0
  6
Continuous
 62
     7
370
    25
100
AcDbLine
 10
68.0054302838
 20
250.6923608594
 30
0.0
 11
68.1124297447
 21
250.1418963528
 31
0.0
  0
LINE
  5
2BC
330
1F
100
AcDbEntity
  8
0
  6
Continuous
 62
     7
370
    25
100
AcDbLine
 10
72.6724664703
 20
250.0018210955
 30
0.0
 11
73.5243535281
 21
250.2157639089
 31
0.0
  0
LINE
  5
2BD
330
1F
100
AcDbEntity
  8
0
  6
Continuous
 62
     7
370
    25
100
AcDbLine
 10
73.8550276132
 20
250.0556936088
 30
0.0
 11
74.3453897133
 21
248.9667032941
 31
0.0
  0
LINE
  5
2BE
330
1F
100
AcDbEntity
  8
0
  6
Continuous
 62
     7
370
    25
100
AcDbLine
 10
74.9954405811
 20
248.5766162291
 30
0.0
 11
75.6011419194
 21
249.4416473878
 31
0.0
  0
LINE
  5
2BF
330
1F
100
AcDbEntity
  8
0
  6
Continuous
 62
     7
370
    25
100
AcDbLine
 10
74.3453897133
 20
248.9667032941
 30
0.0
 11
74.5000370885
 21
248.6232642441
 31
0.0
  0
ARC
  5
2C0
330
1F
100
AcDbEntity
  8
0
  6
Continuous
 62
     7
370
    25
100
AcDbCircle
 10
77.9087804979
 20
255.9993948568
 30
0.0
 40
0.2861992083448879
100
AcDbArc
 50
269.6843586157
 51
330.0000000003
  0
ARC
  5
2C1
330
1F
100
AcDbEntity
  8
0
  6
Continuous
 62
     7
370
    25
100
AcDbCircle
 10
76.6708423563
 20
256.0062147039
 30
0.0
 40
0.2861992083435982
100
AcDbArc
 50
210.0000000056
 51
269.6843586563
  0
ARC
  5
2C2
330
1F
100
AcDbEntity
  8
0
  6
Continuous
 62
     7
370
    25
100
AcDbCircle
 10
75.3856050153
 20
256.0062147038
 30
0.0
 40
0.2861992083435609
100
AcDbArc
 50
269.999999999
 51
329.9999999976
  0
ARC
  5
2C3
330
1F
100
AcDbEntity
  8
0
  6
Continuous
 62
     7
370
    25
100
AcDbCircle
 10
74.1718086445
 20
256.0062147039
 30
0.0
 40
0.2861992083746827
100
AcDbArc
 50
210.0000000056
 51
270.0000000049
  0
ARC
  5
2C4
330
1F
100
AcDbEntity
  8
0
  6
Continuous
 62
     7
370
    25
100
AcDbCircle
 10
72.8865713035
 20
256.0062147039
 30
0.0
 40
0.2861992083435894
100
AcDbArc
 50
269.999999999
 51
329.9999999977
  0
ARC
  5
2C5
330
1F
100
AcDbEntity
  8
0
  6
Continuous
 62
     7
370
    25
100
AcDbCircle
 10
71.7451523271
 20
256.0062147038
 30
0.0
 40
0.2861992083435413
100
AcDbArc
 50
244.9999999649
 51
269.9999999637
  0
ARC
  5
2C6
330
1F
100
AcDbEntity
  8
0
  6
Continuous
 62
     7
370
    25
100
AcDbCircle
 10
70.0709676415
 20
255.8344951789
 30
0.0
 40
0.1144796833467012
100
AcDbArc
 50
269.9999999989
 51
35.000000001
  0
ARC
  5
2C7
330
1F
100
AcDbEntity
  8
0
  6
Continuous
 62
     7
370
    25
100
AcDbCircle
 10
68.4922065398
 20
256.006214704
 30
0.0
 40
0.2861992083731195
100
AcDbArc
 50
210.0000000051
 51
270.0000000055
  0
ARC
  5
2C8
330
1F
100
AcDbEntity
  8
0
  6
Continuous
 62
     7
370
    25
100
AcDbCircle
 10
67.2069691988
 20
256.006214704
 30
0.0
 40
0.2861992083435609
100
AcDbArc
 50
269.9999999991
 51
329.9999999964
  0
LINE
  5
2C9
330
1F
100
AcDbEntity
  8
0
  6
Continuous
 62
     7
370
    25
100
AcDbLine
 10
65.2576299077
 20
255.7200154957
 30
0.0
 11
67.2069691988
 21
255.7200154956
 31
0.0
  0
ARC
  5
2CA
330
1F
100
AcDbEntity
  8
0
  6
Continuous
 62
     7
370
    25
100
AcDbCircle
 10
64.6582368651
 20
253.8742210588
 30
0.0
 40
1.373756199883125
100
AcDbArc
 50
149.9999999991
 51
173.999999999
  0
ARC
  5
2CB
330
1F
100
AcDbEntity
  8
0
  6
Continuous
 62
     7
370
    25
100
AcDbCircle
 10
64.9366565256
 20
253.2376040131
 30
0.0
 40
1.717195249839159
100
AcDbArc
 50
173.9999999913
 51
188.7114973733
  0
ARC
  5
2CC
330
1F
100
AcDbEntity
  8
0
  6
Continuous
 62
     7
370
    25
100
AcDbCircle
 10
75.2503678812
 20
252.0146696872
 30
0.0
 40
0.5723984166424699
100
AcDbArc
 50
356.5565964888
 51
89.9999999999
  0
ARC
  5
2CD
330
1F
100
AcDbEntity
  8
0
  6
Continuous
 62
     7
370
    25
100
AcDbCircle
 10
71.3007366085
 20
251.3043972607
 30
0.0
 40
0.2861992083435458
100
AcDbArc
 50
223.9389210561
 51
285.0000000166
  0
ARC
  5
2CE
330
1F
100
AcDbEntity
  8
0
  6
Continuous
 62
     7
370
    25
100
AcDbCircle
 10
63.7296101816
 20
252.0685211298
 30
0.0
 40
0.3470056497242808
100
AcDbArc
 50
188.7114973796
 51
269.9999999991
  0
ARC
  5
2CF
330
1F
100
AcDbEntity
  8
0
  6
Continuous
 62
     7
370
    25
100
AcDbCircle
 10
75.2260368528
 20
249.704298783
 30
0.0
 40
0.4579187334185257
100
AcDbArc
 50
325.0000000028
 51
356.5565964888
  0
ARC
  5
2D0
330
1F
100
AcDbEntity
  8
0
  6
Continuous
 62
     7
370
    25
100
AcDbCircle
 10
72.6166974632
 20
250.2238846212
 30
0.0
 40
0.2289593666520224
100
AcDbArc
 50
166.416899616
 51
284.0976954816
  0
ARC
  5
2D1
330
1F
100
AcDbEntity
  8
0
  6
Continuous
 62
     7
370
    25
100
AcDbCircle
 10
66.8857793483
 20
249.8583968806
 30
0.0
 40
0.5723984166424451
100
AcDbArc
 50
13.768457582
 51
62.0000000026
  0
ARC
  5
2D2
330
1F
100
AcDbEntity
  8
0
  6
Continuous
 62
     7
370
    25
100
AcDbCircle
 10
67.7753006374
 20
250.0763650927
 30
0.0
 40
0.3434390499494296
100
AcDbArc
 50
193.7684575786
 51
10.9999999982
  0
ARC
  5
2D3
330
1F
100
AcDbEntity
  8
0
  6
Continuous
 62
     7
370
    25
100
AcDbCircle
 10
74.7609999146
 20
248.7407733511
 30
0.0
 40
0.2861992083435531
100
AcDbArc
 50
204.2415899992
 51
324.9999999984
  0
LINE
  5
2D4
330
1F
100
AcDbEntity
  8
0
  6
Continuous
 62
     7
370
    25
100
AcDbLine
 10
173.8153816772
 20
146.6385160559
 30
0.0
 11
168.4048914858
 21
148.1910804459
 31
0.0
  0
ARC
  5
2D5
330
1F
100
AcDbEntity
  8
0
  6
Continuous
 62
     7
370
    25
100
AcDbCircle
 10
168.9565376106
 20
150.1134972979
 30
0.0
 40
2.000000000000066
100
AcDbArc
 50
240.0
 51
253.9889306963
  0
LINE
  5
2D6
330
1F
100
AcDbEntity
  8
0
  6
Continuous
 62
     7
370
    25
100
AcDbLine
 10
167.9565376106
 20
148.3814464904
 30
0.0
 11
120.3611345383
 21
175.8606652663
 31
0.0
  0
LINE
  5
2D7
330
1F
100
AcDbEntity
  8
0
  6
Continuous
 62
     7
370
    25
100
AcDbLine
 10
120.6290837307
 20
176.8606652663
 30
0.0
 11
120.3611345383
 21
175.8606652663
 31
0.0
  0
LINE
  5
2D8
330
1F
100
AcDbEntity
  8
0
  6
Continuous
 62
     7
370
    25
100
AcDbLine
 10
168.5627872431
 20
149.1861286402
 30
0.0
 11
120.6290837307
 21
176.8606652663
 31
0.0
  0
LINE
  5
2D9
330
1F
100
AcDbEntity
  8
0
  6
Continuous
 62
     7
370
    25
100
AcDbLine
 10
174.3306636808
 20
147.5310106664
 30
0.0
 11
168.5627872431
 21
149.1861286402
 31
0.0
  0
LINE
  5
2DA
330
1F
100
AcDbEntity
  8
0
  6
Continuous
 62
     7
370
    25
100
AcDbLine
 10
173.8153816772
 20
146.6385160559
 30
0.0
 11
174.3306636808
 21
147.5310106664
 31
0.0
  0
LINE
  5
2DB
330
1F
100
AcDbEntity
  8
0
  6
Continuous
 62
     7
370
    25
100
AcDbLine
 10
174.3306636808
 20
147.5310106664
 30
0.0
 11
209.3800996736
 21
208.2384145825
 31
0.0
  0
LINE
  5
2DC
330
1F
100
AcDbEntity
  8
0
  6
Continuous
 62
     7
370
    25
100
AcDbLine
 10
205.0627872431
 20
212.4059831165
 30
0.0
 11
168.5627872431
 21
149.1861286402
 31
0.0
  0
LINE
  5
2DD
330
1F
100
AcDbEntity
  8
0
  6
Continuous
 62
     7
370
    25
100
AcDbLine
 10
205.0627872431
 20
212.4059831165
 30
0.0
 11
209.3800996736
 21
208.2384145825
 31
0.0
  0
LINE
  5
2DE
330
1F
100
AcDbEntity
  8
0
  6
Continuous
 62
     7
370
    25
100
AcDbLine
 10
205.8455763788
 20
213.0402489506
 30
0.0
 11
209.8953816772
 21
209.130909193
 31
0.0
  0
LINE
  5
2DF
330
1F
100
AcDbEntity
  8
0
  6
Continuous
 62
     7
370
    25
100
AcDbLine
 10
140.4573239707
 20
250.8606652663
 30
0.0
 11
205.4565376106
 21
213.3333517742
 31
0.0
  0
LINE
  5
2E0
330
1F
100
AcDbEntity
  8
0
  6
Continuous
 62
     7
370
    25
100
AcDbLine
 10
140.1893747782
 20
249.8606652663
 30
0.0
 11
120.6290837307
 21
176.8606652663
 31
0.0
  0
LINE
  5
2E1
330
1F
100
AcDbEntity
  8
0
  6
Continuous
 62
     7
370
    25
100
AcDbLine
 10
140.1893747782
 20
249.8606652663
 30
0.0
 11
205.0627872431
 21
212.4059831165
 31
0.0
  0
ARC
  5
2E2
330
1F
100
AcDbEntity
  8
0
  6
Continuous
 62
     7
370
    25
100
AcDbCircle
 10
204.4565376106
 20
211.6013009666
 30
0.0
 40
1.999999999999983
100
AcDbArc
 50
46.0110693037
 51
60.0
  0
LINE
  5
2E3
330
1F
100
AcDbEntity
  8
0
  6
Continuous
 62
     7
370
    25
100
AcDbLine
 10
140.4573239707
 20
250.8606652663
 30
0.0
 11
140.1893747782
 21
249.8606652663
 31
0.0
  0
LINE
  5
2E4
330
1F
100
AcDbEntity
  8
0
  6
Continuous
 62
     7
370
    25
100
AcDbLine
 10
209.3800996736
 20
208.2384145825
 30
0.0
 11
209.8953816772
 21
209.130909193
 31
0.0
  0
ARC
  5
2E5
330
1F
100
AcDbEntity
  8
0
  6
Continuous
 62
     7
370
    25
100
AcDbCircle
 10
77.5493760666
 20
253.9606652663
 30
0.0
 40
3.000000000001291
100
AcDbArc
 50
17.4
 51
90.0
  0
ARC
  5
2E6
330
1F
100
AcDbEntity
  8
0
  6
Continuous
 62
     7
370
    25
100
AcDbCircle
 10
77.5493760666
 20
172.7606652663
 30
0.0
 40
3.000000000001308
100
AcDbArc
 50
270.0
 51
342.6
  0
LINE
  5
2E7
330
1F
100
AcDbEntity
  8
0
  6
Continuous
 62
     7
370
    25
100
AcDbLine
 10
79.8637490415
 20
173.4577876431
 30
0.0
 11
79.4578567237
 21
172.1625836818
 31
0.0
  0
ARC
  5
2E8
330
1F
100
AcDbEntity
  8
0
  6
Continuous
 62
     7
370
    25
100
AcDbCircle
 10
82.726470027
 20
172.5606652663
 30
0.0
 40
3.000000000000013
100
AcDbArc
 50
90.0
 51
162.6
  0
LINE
  5
2E9
330
1F
100
AcDbEntity
  8
0
  6
Continuous
 62
     7
370
    25
100
AcDbLine
 10
107.9089709666
 20
175.5606652663
 30
0.0
 11
82.726470027
 21
175.5606652663
 31
0.0
  0
ARC
  5
2EA
330
1F
100
AcDbEntity
  8
0
  6
Continuous
 62
     7
370
    25
100
AcDbCircle
 10
107.9089709666
 20
177.5606652663
 30
0.0
 40
2.000000000001729
100
AcDbArc
 50
270.0
 51
287.0
  0
LINE
  5
2EB
330
1F
100
AcDbEntity
  8
0
  6
Continuous
 62
     7
370
    25
100
AcDbLine
 10
112.0312192632
 20
176.7295795342
 30
0.0
 11
108.493714376
 21
175.6480557544
 31
0.0
  0
ARC
  5
2EC
330
1F
100
AcDbEntity
  8
0
  6
Continuous
 62
     7
370
    25
100
AcDbCircle
 10
112.9083343774
 20
173.8606652663
 30
0.0
 40
3.000000000000014
100
AcDbArc
 50
90.0
 51
107.0
  0
LINE
  5
2ED
330
1F
100
AcDbEntity
  8
0
  6
Continuous
 62
     7
370
    25
100
AcDbLine
 10
120.6290837307
 20
176.8606652663
 30
0.0
 11
112.9083343774
 21
176.8606652663
 31
0.0
  0
LINE
  5
2EE
330
1F
100
AcDbEntity
  8
0
  6
Continuous
 62
     7
370
    25
100
AcDbLine
 10
120.3611345383
 20
175.8606652663
 30
0.0
 11
112.9083343774
 21
175.8606652663
 31
0.0
  0
ARC
  5
2EF
330
1F
100
AcDbEntity
  8
0
  6
Continuous
 62
     7
370
    25
100
AcDbCircle
 10
112.9083343774
 20
173.8606652663
 30
0.0
 40
2.000000000001834
100
AcDbArc
 50
90.0
 51
107.0
  0
LINE
  5
2F0
330
1F
100
AcDbEntity
  8
0
  6
Continuous
 62
     7
370
    25
100
AcDbLine
 10
112.3235909679
 20
175.7732747783
 30
0.0
 11
108.7860860808
 21
174.6917509984
 31
0.0
  0
ARC
  5
2F1
330
1F
100
AcDbEntity
  8
0
  6
Continuous
 62
     7
370
    25
100
AcDbCircle
 10
107.9089709666
 20
177.5606652663
 30
0.0
 40
3.000000000000016
100
AcDbArc
 50
270.0
 51
287.0
  0
LINE
  5
2F2
330
1F
100
AcDbEntity
  8
0
  6
Continuous
 62
     7
370
    25
100
AcDbLine
 10
107.9089709666
 20
174.5606652663
 30
0.0
 11
82.726470027
 21
174.5606652663
 31
0.0
  0
ARC
  5
2F3
330
1F
100
AcDbEntity
  8
0
  6
Continuous
 62
     7
370
    25
100
AcDbCircle
 10
82.726470027
 20
172.5606652663
 30
0.0
 40
2.000000000000014
100
AcDbArc
 50
90.0
 51
162.6
  0
LINE
  5
2F4
330
1F
100
AcDbEntity
  8
0
  6
Continuous
 62
     7
370
    25
100
AcDbLine
 10
80.81798937
 20
173.1587468509
 30
0.0
 11
80.4120970522
 21
171.8635428896
 31
0.0
  0
LINE
  5
2F5
330
1F
100
AcDbEntity
  8
0
  6
Continuous
 62
     7
370
    25
100
AcDbLine
 10
77.5493760666
 20
169.7606652663
 30
0.0
 11
65.4364659049
 21
169.7606652663
 31
0.0
  0
ARC
  5
2F6
330
1F
100
AcDbEntity
  8
0
  6
Continuous
 62
     7
370
    25
100
AcDbCircle
 10
65.4364659049
 20
172.7606652663
 30
0.0
 40
3.0
100
AcDbArc
 50
198.1
 51
270.0
  0
LINE
  5
2F7
330
1F
100
AcDbEntity
  8
0
  6
Continuous
 62
     7
370
    25
100
AcDbLine
 10
62.58491871
 20
171.8286359774
 30
0.0
 11
62.2079353147
 21
172.9820181256
 31
0.0
  0
ARC
  5
2F8
330
1F
100
AcDbEntity
  8
0
  6
Continuous
 62
     7
370
    25
100
AcDbCircle
 10
60.3069038515
 20
172.3606652663
 30
0.0
 40
2.000000000003957
100
AcDbArc
 50
18.1
 51
90.0
  0
LINE
  5
2F9
330
1F
100
AcDbEntity
  8
0
  6
Continuous
 62
     7
370
    25
100
AcDbLine
 10
60.3069038515
 20
174.3606652663
 30
0.0
 11
56.4573239707
 21
174.3606652663
 31
0.0
  0
LINE
  5
2FA
330
1F
100
AcDbEntity
  8
0
  6
Continuous
 62
     7
370
    25
100
AcDbLine
 10
56.4573239707
 20
174.3606652663
 30
0.0
 11
56.4573239707
 21
175.3606652663
 31
0.0
  0
LINE
  5
2FB
330
1F
100
AcDbEntity
  8
0
  6
Continuous
 62
     7
370
    25
100
AcDbLine
 10
60.3069038515
 20
175.3606652663
 30
0.0
 11
56.4573239707
 21
175.3606652663
 31
0.0
  0
ARC
  5
2FC
330
1F
100
AcDbEntity
  8
0
  6
Continuous
 62
     7
370
    25
100
AcDbCircle
 10
60.3069038515
 20
172.3606652663
 30
0.0
 40
3.0
100
AcDbArc
 50
18.1
 51
90.0
  0
LINE
  5
2FD
330
1F
100
AcDbEntity
  8
0
  6
Continuous
 62
     7
370
    25
100
AcDbLine
 10
63.5354344417
 20
172.1393124071
 30
0.0
 11
63.1584510464
 21
173.2926945552
 31
0.0
  0
ARC
  5
2FE
330
1F
100
AcDbEntity
  8
0
  6
Continuous
 62
     7
370
    25
100
AcDbCircle
 10
65.4364659049
 20
172.7606652663
 30
0.0
 40
2.000000000001007
100
AcDbArc
 50
198.1
 51
270.0
  0
LINE
  5
2FF
330
1F
100
AcDbEntity
  8
0
  6
Continuous
 62
     7
370
    25
100
AcDbLine
 10
77.5493760666
 20
170.7606652663
 30
0.0
 11
65.4364659049
 21
170.7606652663
 31
0.0
  0
ARC
  5
300
330
1F
100
AcDbEntity
  8
0
  6
Continuous
 62
     7
370
    25
100
AcDbCircle
 10
77.5493760666
 20
172.7606652663
 30
0.0
 40
2.000000000001263
100
AcDbArc
 50
270.0
 51
342.6
  0
ARC
  5
301
330
1F
100
AcDbEntity
  8
0
  6
Continuous
 62
     7
370
    25
100
AcDbCircle
 10
65.4364659049
 20
253.9606652663
 30
0.0
 40
3.0
100
AcDbArc
 50
90.0
 51
161.9
  0
LINE
  5
302
330
1F
100
AcDbEntity
  8
0
  6
Continuous
 62
     7
370
    25
100
AcDbLine
 10
65.4364659049
 20
256.9606652663
 30
0.0
 11
77.5493760666
 21
256.9606652663
 31
0.0
  0
ARC
  5
303
330
1F
100
AcDbEntity
  8
0
  6
Continuous
 62
     7
370
    25
100
AcDbCircle
 10
77.5493760666
 20
253.9606652663
 30
0.0
 40
2.000000000001263
100
AcDbArc
 50
17.4
 51
90.0
  0
LINE
  5
304
330
1F
100
AcDbEntity
  8
0
  6
Continuous
 62
     7
370
    25
100
AcDbLine
 10
80.4120970522
 20
254.8577876431
 30
0.0
 11
80.81798937
 21
253.5625836818
 31
0.0
  0
LINE
  5
305
330
1F
100
AcDbEntity
  8
0
  6
Continuous
 62
     7
370
    25
100
AcDbLine
 10
63.1584510464
 20
253.4286359774
 30
0.0
 11
63.5354344417
 21
254.5820181256
 31
0.0
  0
LINE
  5
306
330
1F
100
AcDbEntity
  8
0
  6
Continuous
 62
     7
370
    25
100
AcDbLine
 10
79.4578567237
 20
254.5587468509
 30
0.0
 11
79.8637490415
 21
253.2635428896
 31
0.0
  0
LINE
  5
307
330
1F
100
AcDbEntity
  8
0
  6
Continuous
 62
     7
370
    25
100
AcDbLine
 10
62.2079353147
 20
253.7393124071
 30
0.0
 11
62.58491871
 21
254.8926945552
 31
0.0
  0
ARC
  5
308
330
1F
100
AcDbEntity
  8
0
  6
Continuous
 62
     7
370
    25
100
AcDbCircle
 10
60.3069038515
 20
254.3606652663
 30
0.0
 40
2.000000000003966
100
AcDbArc
 50
270.0
 51
341.9
  0
ARC
  5
309
330
1F
100
AcDbEntity
  8
0
  6
Continuous
 62
     7
370
    25
100
AcDbCircle
 10
60.3069038515
 20
254.3606652663
 30
0.0
 40
3.0
100
AcDbArc
 50
270.0
 51
341.9
  0
ARC
  5
30A
330
1F
100
AcDbEntity
  8
0
  6
Continuous
 62
     7
370
    25
100
AcDbCircle
 10
82.726470027
 20
254.1606652663
 30
0.0
 40
2.000000000000005
100
AcDbArc
 50
197.4
 51
270.0
  0
ARC
  5
30B
330
1F
100
AcDbEntity
  8
0
  6
Continuous
 62
     7
370
    25
100
AcDbCircle
 10
82.726470027
 20
254.1606652663
 30
0.0
 40
3.000000000000004
100
AcDbArc
 50
197.4
 51
270.0
  0
LINE
  5
30C
330
1F
100
AcDbEntity
  8
0
  6
Continuous
 62
     7
370
    25
100
AcDbLine
 10
56.4573239707
 20
252.3606652663
 30
0.0
 11
60.3069038515
 21
252.3606652663
 31
0.0
  0
LINE
  5
30D
330
1F
100
AcDbEntity
  8
0
  6
Continuous
 62
     7
370
    25
100
AcDbLine
 10
82.726470027
 20
252.1606652663
 30
0.0
 11
107.9089709666
 21
252.1606652663
 31
0.0
  0
LINE
  5
30E
330
1F
100
AcDbEntity
  8
0
  6
Continuous
 62
     7
370
    25
100
AcDbLine
 10
82.726470027
 20
251.1606652663
 30
0.0
 11
107.9089709666
 21
251.1606652663
 31
0.0
  0
LINE
  5
30F
330
1F
100
AcDbEntity
  8
0
  6
Continuous
 62
     7
370
    25
100
AcDbLine
 10
108.7860860808
 20
252.0295795342
 30
0.0
 11
112.3235909679
 21
250.9480557544
 31
0.0
  0
ARC
  5
310
330
1F
100
AcDbEntity
  8
0
  6
Continuous
 62
     7
370
    25
100
AcDbCircle
 10
112.9083343774
 20
252.8606652663
 30
0.0
 40
2.000000000001834
100
AcDbArc
 50
253.0
 51
270.0
  0
LINE
  5
311
330
1F
100
AcDbEntity
  8
0
  6
Continuous
 62
     7
370
    25
100
AcDbLine
 10
56.4573239707
 20
251.3606652663
 30
0.0
 11
60.3069038515
 21
251.3606652663
 31
0.0
  0
LINE
  5
312
330
1F
100
AcDbEntity
  8
0
  6
Continuous
 62
     7
370
    25
100
AcDbLine
 10
56.4573239707
 20
175.3606652663
 30
0.0
 11
56.4573239707
 21
251.3606652663
 31
0.0
  0
ARC
  5
313
330
1F
100
AcDbEntity
  8
0
  6
Continuous
 62
     7
370
    25
100
AcDbCircle
 10
107.9089709666
 20
249.1606652663
 30
0.0
 40
2.000000000001729
100
AcDbArc
 50
73.0
 51
90.0
  0
LINE
  5
314
330
1F
100
AcDbEntity
  8
0
  6
Continuous
 62
     7
370
    25
100
AcDbLine
 10
108.493714376
 20
251.0732747783
 30
0.0
 11
112.0312192632
 21
249.9917509984
 31
0.0
  0
LINE
  5
315
330
1F
100
AcDbEntity
  8
0
  6
Continuous
 62
     7
370
    25
100
AcDbLine
 10
112.9083343774
 20
250.8606652663
 30
0.0
 11
140.4573239707
 21
250.8606652663
 31
0.0
  0
LINE
  5
316
330
1F
100
AcDbEntity
  8
0
  6
Continuous
 62
     7
370
    25
100
AcDbLine
 10
112.9083343774
 20
249.8606652663
 30
0.0
 11
140.1893747782
 21
249.8606652663
 31
0.0
  0
LINE
  5
317
330
1F
100
AcDbEntity
  8
0
  6
Continuous
 62
     7
370
    25
100
AcDbLine
 10
120.6290837307
 20
176.8606652663
 30
0.0
 11
140.1893747782
 21
249.8606652663
 31
0.0
  0
ARC
  5
318
330
1F
100
AcDbEntity
  8
0
  6
Continuous
 62
     7
370
    25
100
AcDbCircle
 10
112.9083343774
 20
252.8606652663
 30
0.0
 40
3.000000000000014
100
AcDbArc
 50
253.0
 51
270.0
  0
ARC
  5
319
330
1F
100
AcDbEntity
  8
0
  6
Continuous
 62
     7
370
    25
100
AcDbCircle
 10
65.4364659049
 20
253.9606652663
 30
0.0
 40
2.000000000001007
100
AcDbArc
 50
90.0
 51
161.9
  0
LINE
  5
31A
330
1F
100
AcDbEntity
  8
0
  6
Continuous
 62
     7
370
    25
100
AcDbLine
 10
65.4364659049
 20
255.9606652663
 30
0.0
 11
77.5493760666
 21
255.9606652663
 31
0.0
  0
ARC
  5
31B
330
1F
100
AcDbEntity
  8
0
  6
Continuous
 62
     7
370
    25
100
AcDbCircle
 10
107.9089709666
 20
249.1606652663
 30
0.0
 40
3.000000000000057
100
AcDbArc
 50
73.0
 51
90.0
  0
LINE
  5
31C
330
1F
100
AcDbEntity
  8
0
  6
Continuous
 62
     7
370
    25
100
AcDbLine
 10
56.4573239707
 20
251.3606652663
 30
0.0
 11
56.4573239707
 21
252.3606652663
 31
0.0
  0
LINE
  5
31D
330
1F
100
AcDbEntity
  8
0
  6
Continuous
 62
     8
370
    18
100
AcDbLine
 10
79.4659342513
 20
253.6638699796
 30
0.0
 11
79.4659342513
 21
173.0574605531
 31
0.0
  0
LINE
  5
31E
330
1F
100
AcDbEntity
  8
0
  6
Continuous
 62
     8
370
    18
100
AcDbLine
 10
75.3355703574
 20
254.1102337687
 30
0.0
 11
75.3355703574
 21
252.580691317
 31
0.0
  0
LINE
  5
31F
330
1F
100
AcDbEntity
  8
0
  6
Continuous
 62
     8
370
    18
100
AcDbLine
 10
75.3355703574
 20
174.1406392157
 30
0.0
 11
75.3355703574
 21
172.611096764
 31
0.0
  0
LINE
  5
320
330
1F
100
AcDbEntity
  8
0
  6
Continuous
 62
     8
370
    18
100
AcDbLine
 10
76.9102428436
 20
253.7502844584
 30
0.0
 11
76.9102428436
 21
172.9710460743
 31
0.0
  0
LINE
  5
321
330
1F
100
AcDbEntity
  8
0
  6
Continuous
 62
     8
370
    18
100
AcDbLine
 10
76.8185801201
 20
253.7273764828
 30
0.0
 11
76.8185801201
 21
172.9939540498
 31
0.0
  0
LINE
  5
322
330
1F
100
AcDbEntity
  8
0
  6
Continuous
 62
     8
370
    18
100
AcDbLine
 10
76.5835985145
 20
173.1296207429
 30
0.0
 11
76.5835985145
 21
253.5917097898
 31
0.0
  0
LINE
  5
323
330
1F
100
AcDbEntity
  8
0
  6
Continuous
 62
     8
370
    18
100
AcDbLine
 10
76.4231477206
 20
253.5857501433
 30
0.0
 11
76.4231477206
 21
173.1355803894
 31
0.0
  0
LINE
  5
324
330
1F
100
AcDbEntity
  8
0
  6
Continuous
 62
     8
370
    18
100
AcDbLine
 10
64.5439167137
 20
174.9998150526
 30
0.0
 11
64.5439167137
 21
251.7215154801
 31
0.0
  0
LINE
  5
325
330
1F
100
AcDbEntity
  8
0
  6
Continuous
 62
     8
370
    18
100
AcDbLine
 10
64.6514066254
 20
175.0266152976
 30
0.0
 11
64.6514066254
 21
251.694715235
 31
0.0
  0
LINE
  5
326
330
1F
100
AcDbEntity
  8
0
  6
Continuous
 62
     8
370
    18
100
AcDbLine
 10
70.738900099
 20
175.34735249
 30
0.0
 11
70.738900099
 21
251.3739780427
 31
0.0
  0
LINE
  5
327
330
1F
100
AcDbEntity
  8
0
  6
Continuous
 62
     8
370
    18
100
AcDbLine
 10
70.9037691409
 20
175.417438981
 30
0.0
 11
70.9037691409
 21
251.3038915517
 31
0.0
  0
LINE
  5
328
330
1F
100
AcDbEntity
  8
0
  6
Continuous
 62
     8
370
    18
100
AcDbLine
 10
72.374075091
 20
175.8098157165
 30
0.0
 11
72.374075091
 21
250.9115148161
 31
0.0
  0
LINE
  5
329
330
1F
100
AcDbEntity
  8
0
  6
Continuous
 62
     8
370
    18
100
AcDbLine
 10
71.6936509598
 20
175.6313025959
 30
0.0
 11
71.6936509597
 21
251.0900279368
 31
0.0
  0
LINE
  5
32A
330
1F
100
AcDbEntity
  8
0
  6
Continuous
 62
     8
370
    18
100
AcDbLine
 10
71.6056298401
 20
175.6315326
 30
0.0
 11
71.6056298401
 21
251.0897979327
 31
0.0
  0
LINE
  5
32B
330
1F
100
AcDbEntity
  8
0
  6
Continuous
 62
     8
370
    18
100
AcDbLine
 10
68.5673121294
 20
175.3473524899
 30
0.0
 11
68.5673121294
 21
251.3739780428
 31
0.0
  0
LINE
  5
32C
330
1F
100
AcDbEntity
  8
0
  6
Continuous
 62
     8
370
    18
100
AcDbLine
 10
70.1647439081
 20
255.9001580277
 30
0.0
 11
70.1647439081
 21
255.7688323301
 31
0.0
  0
LINE
  5
32D
330
1F
100
AcDbEntity
  8
0
  6
Continuous
 62
     8
370
    18
100
AcDbLine
 10
70.1647439081
 20
170.9524982026
 30
0.0
 11
70.1647439081
 21
170.8211725049
 31
0.0
  0
LINE
  5
32E
330
1F
100
AcDbEntity
  8
0
  6
Continuous
 62
     8
370
    18
100
AcDbLine
 10
73.8550276132
 20
176.6656369239
 30
0.0
 11
73.8550276132
 21
250.0556936088
 31
0.0
  0
LINE
  5
32F
330
1F
100
AcDbEntity
  8
0
  6
Continuous
 62
     8
370
    18
100
AcDbLine
 10
73.5243535281
 20
176.5055666238
 30
0.0
 11
73.5243535281
 21
250.2157639089
 31
0.0
  0
LINE
  5
330
330
1F
100
AcDbEntity
  8
0
  6
Continuous
 62
     8
370
    18
100
AcDbLine
 10
63.3866077578
 20
252.0159639402
 30
0.0
 11
63.3866077578
 21
174.7053665925
 31
0.0
  0
LINE
  5
331
330
1F
100
AcDbEntity
  8
0
  6
Continuous
 62
     8
370
    18
100
AcDbLine
 10
63.239271675
 20
173.743811496
 30
0.0
 11
63.239271675
 21
252.9775190367
 31
0.0
  0
LINE
  5
332
330
1F
100
AcDbEntity
  8
0
  6
Continuous
 62
     8
370
    18
100
AcDbLine
 10
67.1545041275
 20
176.3575358479
 30
0.0
 11
67.1545041275
 21
250.3637946848
 31
0.0
  0
LINE
  5
333
330
1F
100
AcDbEntity
  8
0
  6
Continuous
 62
     8
370
    18
100
AcDbLine
 10
63.7296101816
 20
174.9998150526
 30
0.0
 11
63.7296101816
 21
251.7215154801
 31
0.0
  0
LINE
  5
334
330
1F
100
AcDbEntity
  8
0
  6
Continuous
 62
     8
370
    18
100
AcDbLine
 10
71.0946503063
 20
251.1058061661
 30
0.0
 11
71.0946503063
 21
175.6155243666
 31
0.0
  0
LINE
  5
335
330
1F
100
AcDbEntity
  8
0
  6
Continuous
 62
     8
370
    18
100
AcDbLine
 10
71.3748104144
 20
175.6933804787
 30
0.0
 11
71.3748104144
 21
251.027950054
 31
0.0
  0
LINE
  5
336
330
1F
100
AcDbEntity
  8
0
  6
Continuous
 62
     8
370
    18
100
AcDbLine
 10
75.6831288665
 20
177.0445355198
 30
0.0
 11
75.6831288665
 21
249.6767950128
 31
0.0
  0
LINE
  5
337
330
1F
100
AcDbEntity
  8
0
  6
Continuous
 62
     8
370
    18
100
AcDbLine
 10
75.8217328983
 20
251.9802899745
 30
0.0
 11
75.8217328983
 21
174.7410405582
 31
0.0
  0
LINE
  5
338
330
1F
100
AcDbEntity
  8
0
  6
Continuous
 62
     8
370
    18
100
AcDbLine
 10
72.6724664703
 20
176.7195094371
 30
0.0
 11
72.6724664703
 21
250.0018210955
 31
0.0
  0
LINE
  5
339
330
1F
100
AcDbEntity
  8
0
  6
Continuous
 62
     8
370
    18
100
AcDbLine
 10
74.3453897133
 20
177.7546272386
 30
0.0
 11
74.3453897133
 21
248.9667032941
 31
0.0
  0
LINE
  5
33A
330
1F
100
AcDbEntity
  8
0
  6
Continuous
 62
     8
370
    18
100
AcDbLine
 10
74.9954405811
 20
178.1447143036
 30
0.0
 11
74.9954405811
 21
248.5766162291
 31
0.0
  0
LINE
  5
33B
330
1F
100
AcDbEntity
  8
0
  6
Continuous
 62
     8
370
    18
100
AcDbLine
 10
75.6011419194
 20
249.4416473878
 30
0.0
 11
75.6011419194
 21
177.2796831449
 31
0.0
  0
LINE
  5
33C
330
1F
100
AcDbEntity
  8
0
  6
Continuous
 62
     8
370
    18
100
AcDbLine
 10
74.5000370885
 20
248.6232642441
 30
0.0
 11
74.5000370885
 21
178.0980662886
 31
0.0
  0
LINE
  5
33D
330
1F
100
AcDbEntity
  8
0
  6
Continuous
 62
     8
370
    18
100
AcDbLine
 10
67.441730154
 20
249.9946270132
 30
0.0
 11
67.441730154
 21
176.7267035195
 31
0.0
  0
LINE
  5
33E
330
1F
100
AcDbEntity
  8
0
  6
Continuous
 62
     8
370
    18
100
AcDbLine
 10
77.5493760666
 20
170.7606652663
 30
0.0
 11
77.5493760666
 21
171.0061592548
 31
0.0
  0
LINE
  5
33F
330
1F
100
AcDbEntity
  8
0
  6
Continuous
 62
     8
370
    18
100
AcDbLine
 10
77.5493760666
 20
255.7151712778
 30
0.0
 11
77.5493760666
 21
255.9606652663
 31
0.0
  0
LINE
  5
340
330
1F
100
AcDbEntity
  8
0
  6
Continuous
 62
     8
370
    18
100
AcDbLine
 10
63.1584510464
 20
173.2926945552
 30
0.0
 11
63.1584510464
 21
253.4286359774
 31
0.0
  0
LINE
  5
341
330
1F
100
AcDbEntity
  8
0
  6
Continuous
 62
     8
370
    18
100
AcDbLine
 10
79.8637490415
 20
253.2635428896
 30
0.0
 11
79.8637490415
 21
173.4577876431
 31
0.0
  0
LINE
  5
342
330
1F
100
AcDbEntity
  8
0
  6
Continuous
 62
     8
370
    18
100
AcDbLine
 10
60.3069038515
 20
251.3606652663
 30
0.0
 11
60.3069038515
 21
175.3606652663
 31
0.0
  0
LINE
  5
343
330
1F
100
AcDbEntity
  8
0
  6
Continuous
 62
     8
370
    18
100
AcDbLine
 10
82.726470027
 20
175.5606652663
 30
0.0
 11
82.726470027
 21
251.1606652663
 31
0.0
  0
LINE
  5
344
330
1F
100
AcDbEntity
  8
0
  6
Continuous
 62
     8
370
    18
100
AcDbLine
 10
107.9089709666
 20
175.5606652663
 30
0.0
 11
107.9089709666
 21
251.1606652663
 31
0.0
  0
LINE
  5
345
330
1F
100
AcDbEntity
  8
0
  6
Continuous
 62
     8
370
    18
100
AcDbLine
 10
108.493714376
 20
175.6480557544
 30
0.0
 11
108.493714376
 21
251.0732747783
 31
0.0
  0
LINE
  5
346
330
1F
100
AcDbEntity
  8
0
  6
Continuous
 62
     8
370
    18
100
AcDbLine
 10
112.0312192632
 20
249.9917509984
 30
0.0
 11
112.0312192632
 21
176.7295795342
 31
0.0
  0
LINE
  5
347
330
1F
100
AcDbEntity
  8
0
  6
Continuous
 62
     8
370
    18
100
AcDbLine
 10
112.9083343774
 20
176.8606652663
 30
0.0
 11
112.9083343774
 21
249.8606652663
 31
0.0
  0
LINE
  5
348
330
1F
100
AcDbEntity
  8
0
  6
Continuous
 62
     8
370
    18
100
AcDbLine
 10
65.4364659049
 20
255.9606652663
 30
0.0
 11
65.4364659049
 21
255.7200154957
 31
0.0
  0
LINE
  5
349
330
1F
100
AcDbEntity
  8
0
  6
Continuous
 62
     8
370
    18
100
AcDbLine
 10
65.4364659049
 20
171.001315037
 30
0.0
 11
65.4364659049
 21
170.7606652663
 31
0.0
  0
HATCH
  5
34A
330
1F
100
AcDbEntity
  8
0
  6
Continuous
 62
     7
370
    18
100
AcDbHatch
 10
0.0
 20
0.0
 30
0.0
210
0.0
220
0.0
230
1.0
  2
ANSI31
 70
     0
 71
     0
 91
        1
 92
        0
 93
       28
 72
     2
 10
65.4364659049147
 20
253.9606652663385
 40
2.0
 50
198.1000000000017
 51
270.0000000000008
 73
     0
 72
     1
 10
65.4364659049147
 20
255.9606652663385
 11
77.54937606662295
 21
255.9606652663385
 72
     2
 10
77.54937606662295
 20
253.9606652663385
 40
2.0
 50
270.0000000000008
 51
342.5999999999998
 73
     0
 72
     1
 10
79.4578567236567
 20
254.5587468508511
 11
79.86374904149193
 21
253.2635428895702
 72
     2
 10
82.72647002704076
 20
254.1606652663385
 40
3.0
 50
197.4000000000009
 51
270.0000000000008
 73
     1
 72
     1
 10
82.72647002704076
 20
251.1606652663385
 11
107.9089709666035
 21
251.1606652663385
 72
     2
 10
107.9089709666035
 20
249.1606652663385
 40
2.0
 50
270.0000000000008
 51
287.000000000002
 73
     0
 72
     1
 10
108.4937143760496
 20
251.0732747782662
 11
112.0312192632102
 21
249.9917509984494
 72
     2
 10
112.9083343773785
 20
252.8606652663385
 40
3.0
 50
252.9999999999993
 51
270.0000000000008
 73
     1
 72
     1
 10
112.9083343773785
 20
249.8606652663385
 11
140.1893747782198
 21
249.8606652663385
 72
     1
 10
140.1893747782198
 20
249.8606652663385
 11
140.457323970651
 21
250.8606652663385
 72
     1
 10
140.457323970651
 20
250.8606652663385
 11
112.9083343773785
 21
250.8606652663385
 72
     2
 10
112.9083343773785
 20
252.8606652663385
 40
2.0
 50
90.0
 51
106.9999999999999
 73
     0
 72
     1
 10
112.3235909679325
 20
250.9480557544107
 11
108.7860860807718
 21
252.0295795342276
 72
     2
 10
107.9089709666035
 20
249.1606652663385
 40
3.0
 50
73.00000000000034
 51
90.0
 73
     1
 72
     1
 10
107.9089709666035
 20
252.1606652663385
 11
82.72647002704076
 21
252.1606652663385
 72
     2
 10
82.72647002704076
 20
254.1606652663385
 40
2.0
 50
90.0
 51
162.5999999999997
 73
     0
 72
     1
 10
80.8179893700082
 20
253.5625836818263
 11
80.41209705217304
 21
254.8577876431071
 72
     2
 10
77.54937606662295
 20
253.9606652663385
 40
3.0
 50
17.39999999999865
 51
90.0
 73
     1
 72
     1
 10
77.54937606662295
 20
256.9606652663385
 11
65.4364659049147
 21
256.9606652663385
 72
     2
 10
65.4364659049147
 20
253.9606652663385
 40
3.0
 50
90.0
 51
161.9000000000003
 73
     1
 72
     1
 10
62.58491871003135
 20
254.8926945552307
 11
62.20793531474236
 21
253.7393124070757
 72
     2
 10
60.30690385148304
 20
254.3606652663385
 40
2.0
 50
18.10000000000135
 51
90.0
 73
     0
 72
     1
 10
60.30690385148304
 20
252.3606652663385
 11
56.45732397065095
 21
252.3606652663385
 72
     1
 10
56.45732397065095
 20
252.3606652663385
 11
56.45732397065095
 21
251.3606652663385
 72
     1
 10
56.45732397065095
 20
251.3606652663385
 11
60.30690385148304
 21
251.3606652663385
 72
     2
 10
60.30690385148304
 20
254.3606652663385
 40
3.0
 50
270.0000000000009
 51
341.9000000000011
 73
     1
 72
     1
 10
63.15845104636639
 20
253.4286359774463
 11
63.53543444165818
 21
254.5820181256003
 97
        0
 75
     0
 76
     1
 52
0.0
 41
0.5
 77
     0
 78
     1
 53
45.0
 43
0.0
 44
0.0
 45
-1.122532015133644
 46
1.122532015133644
 79
     0
 98
        1
 10
0.0
 20
0.0
  0
HATCH
  5
34B
330
1F
100
AcDbEntity
  8
0
  6
Continuous
 62
     7
370
    18
100
AcDbHatch
 10
0.0
 20
0.0
 30
0.0
210
0.0
220
0.0
230
1.0
  2
ANSI31
 70
     0
 71
     0
 91
        1
 92
        0
 93
       28
 72
     2
 10
77.54937606662295
 20
172.7606652663385
 40
2.0
 50
17.400000000001
 51
90.0
 73
     0
 72
     1
 10
77.54937606662295
 20
170.7606652663385
 11
65.4364659049147
 21
170.7606652663385
 72
     2
 10
65.4364659049147
 20
172.7606652663385
 40
2.0
 50
90.0
 51
161.8999999999992
 73
     0
 72
     1
 10
63.53543444165818
 20
172.1393124070767
 11
63.15845104636639
 21
173.2926945552307
 72
     2
 10
60.30690385148304
 20
172.3606652663385
 40
3.0
 50
18.10000000000025
 51
89.99999999999987
 73
     1
 72
     1
 10
60.30690385148304
 20
175.3606652663385
 11
56.45732397065095
 21
175.3606652663385
 72
     1
 10
56.45732397065095
 20
175.3606652663385
 11
56.45732397065095
 21
174.3606652663385
 72
     1
 10
56.45732397065095
 20
174.3606652663385
 11
60.30690385148304
 21
174.3606652663385
 72
     2
 10
60.30690385148304
 20
172.3606652663385
 40
2.0
 50
270.0000000000008
 51
341.9000000000002
 73
     0
 72
     1
 10
62.20793531474236
 20
172.9820181256012
 11
62.58491871003135
 21
171.8286359774463
 72
     2
 10
65.4364659049147
 20
172.7606652663385
 40
3.0
 50
198.1000000000006
 51
270.0000000000008
 73
     1
 72
     1
 10
65.4364659049147
 20
169.7606652663385
 11
77.54937606662295
 21
169.7606652663385
 72
     2
 10
77.54937606662295
 20
172.7606652663385
 40
3.0
 50
270.0000000000008
 51
342.6000000000011
 73
     1
 72
     1
 10
80.41209705217304
 20
171.8635428895699
 11
80.8179893700082
 21
173.1587468508507
 72
     2
 10
82.72647002704076
 20
172.5606652663385
 40
2.0
 50
197.400000000002
 51
270.0000000000008
 73
     0
 72
     1
 10
82.72647002704076
 20
174.5606652663385
 11
107.9089709666036
 21
174.5606652663385
 72
     2
 10
107.9089709666035
 20
177.5606652663385
 40
3.0
 50
270.0000000000011
 51
287.0000000000006
 73
     1
 72
     1
 10
108.7860860807718
 20
174.6917509984494
 11
112.3235909679325
 21
175.7732747782663
 72
     2
 10
112.9083343773785
 20
173.8606652663385
 40
2.0
 50
253.0000000000009
 51
270.0000000000008
 73
     0
 72
     1
 10
112.9083343773785
 20
175.8606652663385
 11
120.3611345383168
 21
175.8606652663385
 72
     1
 10
120.3611345383168
 20
175.8606652663385
 11
120.6290837307479
 21
176.8606652663385
 72
     1
 10
120.6290837307479
 20
176.8606652663385
 11
112.9083343773785
 21
176.8606652663385
 72
     2
 10
112.9083343773785
 20
173.8606652663385
 40
3.0
 50
90.0
 51
107.0000000000015
 73
     1
 72
     1
 10
112.0312192632102
 20
176.7295795342276
 11
108.4937143760496
 21
175.6480557544108
 72
     2
 10
107.9089709666035
 20
177.5606652663385
 40
2.0
 50
72.99999999999878
 51
90.0
 73
     0
 72
     1
 10
107.9089709666035
 20
175.5606652663385
 11
82.72647002704076
 21
175.5606652663385
 72
     2
 10
82.72647002704076
 20
172.5606652663385
 40
3.0
 50
90.0
 51
162.5999999999994
 73
     1
 72
     1
 10
79.86374904149193
 20
173.4577876431068
 11
79.4578567236567
 21
172.1625836818259
 97
        0
 75
     0
 76
     1
 52
0.0
 41
0.5
 77
     0
 78
     1
 53
45.0
 43
0.0
 44
0.0
 45
-1.122532015133644
 46
1.122532015133644
 79
     0
 98
        1
 10
0.0
 20
0.0
  0
HATCH
  5
34C
330
1F
100
AcDbEntity
  8
0
  6
Continuous
 62
     7
370
    18
100
AcDbHatch
 10
0.0
 20
0.0
 30
0.0
210
0.0
220
0.0
230
1.0
  2
ANSI31
 70
     0
 71
     0
 91
        1
 92
        0
 93
        7
 72
     1
 10
173.8153816771906
 20
146.6385160558818
 11
174.3306636808004
 21
147.5310106663599
 72
     1
 10
174.3306636808004
 20
147.5310106663599
 11
168.5627872431164
 21
149.1861286402165
 72
     1
 10
168.5627872431164
 20
149.1861286402165
 11
120.6290837307473
 21
176.8606652663383
 72
     1
 10
120.6290837307473
 20
176.8606652663383
 11
120.3611345383162
 21
175.8606652663384
 72
     1
 10
120.3611345383162
 20
175.8606652663384
 11
167.9565376106142
 21
148.3814464903585
 72
     2
 10
168.9565376106142
 20
150.1134972979274
 40
2.0
 50
240.0000000000019
 51
253.9889306962602
 73
     1
 72
     1
 10
168.4048914858332
 20
148.1910804458856
 11
173.8153816771906
 21
146.6385160558818
 97
        0
 75
     0
 76
     1
 52
0.0
 41
0.5
 77
     0
 78
     1
 53
45.0
 43
0.0
 44
0.0
 45
-1.122532015133644
 46
1.122532015133644
 79
     0
 98
        1
 10
0.0
 20
0.0
  0
HATCH
  5
34D
330
1F
100
AcDbEntity
  8
0
  6
Continuous
 62
     7
370
    18
100
AcDbHatch
 10
0.0
 20
0.0
 30
0.0
210
0.0
220
0.0
230
1.0
  2
ANSI31
 70
     0
 71
     0
 91
        1
 92
        0
 93
        7
 72
     1
 10
140.1893747782191
 20
249.8606652663383
 11
205.0627872431164
 21
212.4059831164807
 72
     1
 10
205.0627872431164
 20
212.4059831164807
 11
209.3800996735784
 21
208.2384145824849
 72
     1
 10
209.3800996735784
 20
208.2384145824849
 11
209.8953816771884
 21
209.1309091929633
 72
     1
 10
209.8953816771884
 20
209.1309091929633
 11
205.8455763787553
 21
213.0402489506032
 72
     2
 10
204.4565376106143
 20
211.6013009666228
 40
2.0
 50
46.01106930373646
 51
59.99999999999419
 73
     1
 72
     1
 10
205.4565376106144
 20
213.3333517741915
 11
140.4573239706503
 21
250.8606652663387
 72
     1
 10
140.4573239706503
 20
250.8606652663387
 11
140.1893747782191
 21
249.8606652663383
 97
        0
 75
     0
 76
     1
 52
0.0
 41
0.5
 77
     0
 78
     1
 53
45.0
 43
0.0
 44
0.0
 45
-1.122532015133644
 46
1.122532015133644
 79
     0
 98
        1
 10
0.0
 20
0.0
  0
HATCH
  5
34E
330
1F
100
AcDbEntity
  8
0
  6
Continuous
 62
     7
370
    18
100
AcDbHatch
 10
0.0
 20
0.0
 30
0.0
210
0.0
220
0.0
230
1.0
  2
DIN 128 Elastomer-Gummi
 70
     0
 71
     0
 91
        1
 92
        0
 93
       74
 72
     1
 10
67.20696919878556
 20
255.7200154956231
 11
65.25762990769476
 21
255.7200154957064
 72
     2
 10
65.25762990766746
 20
256.00621470405
 40
0.286199208343561
 50
89.99999999453485
 51
149.9999999948662
 73
     0
 72
     1
 10
65.0097741226968
 20
255.8631150998473
 11
64.86286702209672
 21
256.1175656621647
 72
     4
 94
        3
 73
     1
 74
     0
 95
       26
 96
       22
 40
0.0
 40
0.0
 40
0.0
 40
0.0
 40
0.0000200815855286
 40
0.0000200815855286
 40
0.0000200815855286
 40
0.0001175026773563
 40
0.0001175026773563
 40
0.0001175026773563
 40
0.000214923769184
 40
0.000214923769184
 40
0.000214923769184
 40
0.0003123448610117
 40
0.0003123448610117
 40
0.0003123448610117
 40
0.0004097659528394
 40
0.0004097659528394
 40
0.0004097659528394
 40
0.0005071870446646
 40
0.0005071870446646
 40
0.0005071870446646
 40
0.0006046081364898
 40
0.0006046081364898
 40
0.0006046081364898
 40
0.0006046081364898
 10
64.86286702209672
 20
256.1175656621647
 42
1.0
 10
64.85952009117534
 20
256.1233627165701
 42
1.0
 10
64.85596747260148
 20
256.1290457695642
 42
1.0
 10
64.85222227231907
 20
256.1345938558303
 42
1.0
 10
64.83430016219535
 20
256.1611434140752
 42
1.0
 10
64.81154707492959
 20
256.184964828514
 42
1.0
 10
64.785847203571
 20
256.2040854374593
 42
1.0
 10
64.76014733221243
 20
256.2232060464047
 42
1.0
 10
64.73079184257772
 20
256.2381532198594
 42
1.0
 10
64.70021167552693
 20
256.247689175891
 42
1.0
 10
64.66963150847614
 20
256.2572251319226
 42
1.0
 10
64.63698322524513
 20
256.2616128839721
 42
1.0
 10
64.60497044436332
 20
256.2604890803848
 42
1.0
 10
64.5729576634815
 20
256.2593652767974
 42
1.0
 10
64.54069743292646
 20
256.2526989216827
 42
1.0
 10
64.5108612364168
 20
256.2410420588059
 42
1.0
 10
64.48102503990788
 20
256.2293851959295
 42
1.0
 10
64.45278995830623
 20
256.2124163146208
 42
1.0
 10
64.42849415099539
 20
256.1915406153187
 42
1.0
 10
64.40419834368456
 20
256.1706649160165
 42
1.0
 10
64.38317170230127
 20
256.1453066211594
 42
1.0
 10
64.36715545216052
 20
256.1175656621697
 42
1.0
 72
     1
 10
64.36715545215951
 20
256.1175656621703
 11
63.46852909742416
 21
254.5610991587648
 72
     2
 10
64.65823686511678
 20
253.8742210588044
 40
1.37375619988166
 50
149.9999999990567
 51
173.9999999990466
 73
     1
 72
     1
 10
63.29200624543748
 20
254.0178176833053
 11
63.22886825106072
 21
253.4170997939852
 72
     2
 10
64.93665652562078
 20
253.2376040131284
 40
1.71719524983917
 50
173.999999991259
 51
188.7114973732547
 73
     1
 72
     1
 10
63.23927167500251
 20
252.977519036722
 11
63.3866077577761
 21
252.0159639402069
 72
     2
 10
63.72961018161568
 20
252.0685211297832
 40
0.347005649717682
 50
188.7114973796217
 51
269.9999999990599
 73
     1
 72
     1
 10
63.72961018160998
 20
251.7215154800589
 11
64.54391671369768
 21
251.7215154800524
 72
     2
 10
64.5439167136977
 20
251.4925561134059
 40
0.22895936664645
 50
269.9999999999972
 51
298.0000000019827
 73
     0
 72
     1
 10
64.65140662537978
 20
251.6947152350473
 11
67.15450412749088
 21
250.3637946847779
 72
     2
 10
66.88577934831649
 20
249.858396880635
 40
0.57239841664246
 50
297.999999997404
 51
346.2315424180437
 73
     0
 72
     2
 10
67.77530063739519
 20
250.0763650927421
 40
0.343439049949432
 50
193.7684575785588
 51
370.9999999981832
 73
     1
 72
     1
 10
68.11242974468428
 20
250.1418963528251
 11
68.00543028380247
 21
250.6923608593696
 72
     2
 10
68.5673121293423
 20
250.8015796261982
 40
0.57239841664246
 50
169.000000000619
 51
270.0000000009098
 73
     0
 72
     1
 10
68.56731212935138
 20
251.3739780427979
 11
70.738900099014
 21
251.3739780427113
 72
     2
 10
70.73890009901402
 20
251.1450186760649
 40
0.22895936664645
 50
269.9999999999972
 51
316.0610789804822
 73
     0
 72
     1
 10
70.90376914094328
 20
251.3038915517235
 11
71.09465030626231
 21
251.1058061660742
 72
     2
 10
71.30073660851063
 20
251.3043972607439
 40
0.286199208343561
 50
223.9389210560876
 51
285.0000000165634
 73
     1
 72
     1
 10
71.37481041439473
 20
251.0279500539941
 11
71.60562984011352
 21
251.0897979327173
 72
     4
 94
        3
 73
     1
 74
     0
 95
       11
 96
        7
 40
0.0
 40
0.0
 40
0.0
 40
0.0
 40
0.0000576585004983
 40
0.0000576585004983
 40
0.0000576585004983
 40
0.0000883831276569
 40
0.0000883831276569
 40
0.0000883831276569
 40
0.0000883831276569
 10
71.60562984011352
 20
251.0897979327173
 42
1.0
 10
71.62419445169381
 20
251.0947723053921
 42
1.0
 10
71.6438739134682
 20
251.0966100703134
 42
1.0
 10
71.66303856065089
 20
251.0951590413689
 42
1.0
 10
71.6733555135326
 20
251.0943779052954
 42
1.0
 10
71.6836431672939
 20
251.0926535377498
 42
1.0
 10
71.69365095974972
 20
251.0900279367729
 42
1.0
 72
     1
 10
71.69365095974986
 20
251.0900279367734
 11
72.3740750910036
 21
250.9115148161462
 72
     2
 10
72.33049825480758
 20
250.7454164880143
 40
0.171719524984892
 50
284.700566578053
 51
373.5831004042146
 73
     0
 72
     1
 10
72.49741483864031
 20
250.7050872269416
 11
72.39414201800884
 21
250.2776569692028
 72
     2
 10
72.61669746315772
 20
250.2238846211797
 40
0.228959366651219
 50
166.4168996160353
 51
284.097695481628
 73
     1
 72
     1
 10
72.67246647029499
 20
250.0018210955377
 11
73.52435352814494
 21
250.2157639088509
 72
     4
 94
        3
 73
     1
 74
     0
 95
       20
 96
       16
 40
0.0
 40
0.0
 40
0.0
 40
0.0
 40
0.0000960975008423
 40
0.0000960975008423
 40
0.0000960975008423
 40
0.0001921950016847
 40
0.0001921950016847
 40
0.0001921950016847
 40
0.0002882925025295
 40
0.0002882925025295
 40
0.0002882925025295
 40
0.0003843900033744
 40
0.0003843900033744
 40
0.0003843900033744
 40
0.0003968838896682
 40
0.0003968838896682
 40
0.0003968838896682
 40
0.0003968838896682
 10
73.52435352814494
 20
250.2157639088509
 42
1.0
 10
73.55542126759482
 20
250.2235662571969
 42
1.0
 10
73.58826453723911
 20
250.2261123139509
 42
1.0
 10
73.62016357163891
 20
250.2231912390461
 42
1.0
 10
73.6520626060387
 20
250.2202701641413
 42
1.0
 10
73.68389721994792
 20
250.2118013907252
 42
1.0
 10
73.71303117514763
 20
250.1984862216065
 42
1.0
 10
73.74216513034807
 20
250.1851710524875
 42
1.0
 10
73.7694019772945
 20
250.1666422388612
 42
1.0
 10
73.79248622084911
 20
250.1444341598402
 42
1.0
 10
73.81557046440369
 20
250.1222260808192
 42
1.0
 10
73.83513879650543
 20
250.0957262101642
 42
1.0
 10
73.84957075506492
 20
250.0671290136857
 42
1.0
 10
73.85147364046954
 20
250.0633584105782
 42
1.0
 10
73.85329348457928
 20
250.0595447409027
 42
1.0
 10
73.8550276131692
 20
250.0556936087717
 42
1.0
 72
     1
 10
73.8550276131609
 20
250.0556936087665
 11
74.34538971330613
 21
248.9667032941153
 72
     1
 10
74.34538971330613
 20
248.9667032941153
 11
74.50003708846522
 21
248.6232642440815
 72
     2
 10
74.76099991459148
 20
248.7407733511187
 40
0.286199208343561
 50
204.2415899992459
 51
324.9999999983818
 73
     1
 72
     1
 10
74.99544058114824
 20
248.5766162291228
 11
75.60114191939127
 21
249.4416473877559
 72
     2
 10
75.22603685278523
 20
249.7042987829868
 40
0.457918733412644
 50
325.0000000028019
 51
356.5565964887824
 73
     1
 72
     1
 10
75.68312886654505
 20
249.6767950128339
 11
75.8217328982571
 21
251.9802899744825
 72
     2
 10
75.25036788118777
 20
252.0146696871657
 40
0.57239841664246
 50
356.5565964887869
 51
449.9999999999425
 73
     1
 72
     1
 10
75.25036788118835
 20
252.587068103808
 11
74.9874788768535
 21
252.5870681038083
 72
     4
 94
        3
 73
     1
 74
     0
 95
       38
 96
       34
 40
0.0
 40
0.0
 40
0.0
 40
0.0
 40
0.0002690730023324
 40
0.0002690730023324
 40
0.0002690730023324
 40
0.0005381460046649
 40
0.0005381460046649
 40
0.0005381460046649
 40
0.0008072190069973
 40
0.0008072190069973
 40
0.0008072190069973
 40
0.0010762920093297
 40
0.0010762920093297
 40
0.0010762920093297
 40
0.0013453650116622
 40
0.0013453650116622
 40
0.0013453650116622
 40
0.0016144380139946
 40
0.0016144380139946
 40
0.0016144380139946
 40
0.001883511016327
 40
0.001883511016327
 40
0.001883511016327
 40
0.0021525840186594
 40
0.0021525840186594
 40
0.0021525840186594
 40
0.0024216570209919
 40
0.0024216570209919
 40
0.0024216570209919
 40
0.0026907300233243
 40
0.0026907300233243
 40
0.0026907300233243
 40
0.002863031305315
 40
0.002863031305315
 40
0.002863031305315
 40
0.002863031305315
 10
74.9874788768535
 20
252.5870681038083
 42
1.0
 10
74.89778787607602
 20
252.5870681038081
 42
1.0
 10
74.80685998102776
 20
252.6025533866696
 42
1.0
 10
74.72222497023189
 20
252.6322416093859
 42
1.0
 10
74.63758995943606
 20
252.6619298321022
 42
1.0
 10
74.55691349479731
 20
252.7066398325115
 42
1.0
 10
74.4868764294295
 20
252.7626691560406
 42
1.0
 10
74.41683936406169
 20
252.8186984795697
 42
1.0
 10
74.35550998922822
 20
252.8875924841401
 42
1.0
 10
74.30796701712433
 20
252.9636460272791
 42
1.0
 10
74.26042404502044
 20
253.0396995704181
 42
1.0
 10
74.22535618177486
 20
253.1250103027475
 42
1.0
 10
74.20566741239004
 20
253.2125136054314
 42
1.0
 10
74.18597864300521
 20
253.3000169081152
 42
1.0
 10
74.18112592691207
 20
253.3921262302804
 42
1.0
 10
74.1915111196402
 20
253.4812139589104
 42
1.0
 10
74.20189631236835
 20
253.5703016875405
 42
1.0
 10
74.22780585035561
 20
253.6588249721863
 42
1.0
 10
74.26709415349616
 20
253.7394531611578
 42
1.0
 10
74.30638245663673
 20
253.8200813501291
 42
1.0
 10
74.36013314483986
 20
253.8950382684282
 42
1.0
 10
74.42389510024537
 20
253.9581167010603
 42
1.0
 10
74.48765705565089
 20
254.0211951336925
 42
1.0
 10
74.56318891171476
 20
254.0741348617118
 42
1.0
 10
74.6442358425961
 20
254.1125519232233
 42
1.0
 10
74.72528277347745
 20
254.1509689847348
 42
1.0
 10
74.81408015359737
 20
254.175922969728
 42
1.0
 10
74.9032746333002
 20
254.1853474278561
 42
1.0
 10
74.99246911300303
 20
254.1947718859841
 42
1.0
 10
75.08452078616604
 20
254.1889267554384
 42
1.0
 10
75.17180681371171
 20
254.1682960740206
 42
1.0
 10
75.22817112639915
 20
254.1549739626693
 42
1.0
 10
75.28340243794221
 20
254.135391721087
 42
1.0
 10
75.33557035744907
 20
254.1102337686681
 42
1.0
 72
     1
 10
75.33557035744909
 20
254.1102337686681
 11
76.423147720553
 21
253.5857501432628
 72
     2
 10
76.49773875210893
 20
253.7404232607482
 40
0.171719524984892
 50
244.254334747955
 51
299.999999976527
 73
     1
 72
     1
 10
76.58359851454044
 20
253.5917097897503
 11
76.81858012009515
 21
253.7273764828433
 72
     4
 94
        3
 73
     1
 74
     0
 95
       11
 96
        7
 40
0.0
 40
0.0
 40
0.0
 40
0.0
 40
0.0000576585004983
 40
0.0000576585004983
 40
0.0000576585004983
 40
0.0000950565703646
 40
0.0000950565703646
 40
0.0000950565703646
 40
0.0000950565703646
 10
76.81858012009525
 20
253.7273764828432
 42
1.0
 10
76.83522469549108
 20
253.7369862329193
 42
1.0
 10
76.85375794730517
 20
253.7438547970219
 42
1.0
 10
76.87264512889688
 20
253.7474133863711
 42
1.0
 10
76.8849968601394
 20
253.7497406123275
 42
1.0
 10
76.89768096347115
 20
253.7507092077333
 42
1.0
 10
76.91024284363729
 20
253.7502844583586
 42
1.0
 72
     1
 10
76.9102428436373
 20
253.7502844583586
 11
79.46593425126528
 21
253.6638699795729
 72
     2
 10
79.47754017391512
 20
254.0071128731659
 40
0.343439049949432
 50
268.0634205299033
 51
380.9858189554907
 73
     1
 72
     1
 10
79.79819860124323
 20
254.1301110601998
 11
79.55078266437442
 21
254.7751287360217
 72
     2
 10
78.26814895587356
 20
254.2831359869319
 40
1.37375619988166
 50
20.98581900476777
 51
29.99999999174356
 73
     1
 72
     1
 10
79.45785672367647
 20
254.9700140867013
 11
78.79925495351274
 21
256.1107458149151
 72
     4
 94
        3
 73
     1
 74
     0
 95
       26
 96
       22
 40
0.0
 40
0.0
 40
0.0
 40
0.0
 40
0.0000200815855724
 40
0.0000200815855724
 40
0.0000200815855724
 40
0.0001175026773999
 40
0.0001175026773999
 40
0.0001175026773999
 40
0.0002149237692273
 40
0.0002149237692273
 40
0.0002149237692273
 40
0.0003123448610548
 40
0.0003123448610548
 40
0.0003123448610548
 40
0.0004097659528822
 40
0.0004097659528822
 40
0.0004097659528822
 40
0.0005071870447071
 40
0.0005071870447071
 40
0.0005071870447071
 40
0.0006046081365321
 40
0.0006046081365321
 40
0.0006046081365321
 40
0.0006046081365321
 10
78.79925495351097
 20
256.110745814914
 42
1.0
 10
78.79590802258306
 20
256.1165428693325
 42
1.0
 10
78.79235540400175
 20
256.1222259223393
 42
1.0
 10
78.78861020371109
 20
256.1277740086175
 42
1.0
 10
78.7706880935869
 20
256.1543235668621
 42
1.0
 10
78.74793500632073
 20
256.1781449813004
 42
1.0
 10
78.72223513496182
 20
256.1972655902453
 42
1.0
 10
78.69653526360293
 20
256.2163861991903
 42
1.0
 10
78.66717977396797
 20
256.2313333726446
 42
1.0
 10
78.63659960691702
 20
256.2408693286756
 42
1.0
 10
78.60601943986607
 20
256.2504052847067
 42
1.0
 10
78.57337115663499
 20
256.2547930367557
 42
1.0
 10
78.54135837575319
 20
256.2536692331678
 42
1.0
 10
78.50934559487139
 20
256.2525454295799
 42
1.0
 10
78.47708536431647
 20
256.2458790744645
 42
1.0
 10
78.447249167807
 20
256.2342222115874
 42
1.0
 10
78.41741297129829
 20
256.2225653487105
 42
1.0
 10
78.38917788969691
 20
256.2055964674012
 42
1.0
 10
78.36488208238643
 20
256.1847207680987
 42
1.0
 10
78.34058627507594
 20
256.1638450687961
 42
1.0
 10
78.31955963369309
 20
256.1384867739386
 42
1.0
 10
78.3035433835528
 20
256.1107458149487
 42
1.0
 72
     1
 10
78.3035433835528
 20
256.1107458149487
 11
78.15663628289738
 21
255.8562952526165
 72
     2
 10
77.90878049792703
 20
255.9993948567878
 40
0.286199208343561
 50
29.99999999972508
 51
90.31564138425361
 73
     0
 72
     1
 10
77.90720383978348
 20
255.7131999913454
 11
76.66926569839494
 21
255.7200198385445
 72
     2
 10
76.67084235633533
 20
256.0062147038698
 40
0.286199208343561
 50
90.31564134371196
 51
149.9999999943934
 73
     0
 72
     1
 10
76.4229865713808
 20
255.8631150996737
 11
76.27607947076451
 21
256.1175656619761
 72
     4
 94
        3
 73
     1
 74
     0
 95
       26
 96
       22
 40
0.0
 40
0.0
 40
0.0
 40
0.0
 40
0.0000200815855338
 40
0.0000200815855338
 40
0.0000200815855338
 40
0.0001175026773615
 40
0.0001175026773615
 40
0.0001175026773615
 40
0.0002149237691892
 40
0.0002149237691892
 40
0.0002149237691892
 40
0.0003123448610169
 40
0.0003123448610169
 40
0.0003123448610169
 40
0.0004097659528446
 40
0.0004097659528446
 40
0.0004097659528446
 40
0.0005071870446697
 40
0.0005071870446697
 40
0.0005071870446697
 40
0.0006046081364949
 40
0.0006046081364949
 40
0.0006046081364949
 40
0.0006046081364949
 10
76.27607947082174
 20
256.1175656620091
 42
1.0
 10
76.27273253989958
 20
256.1233627164161
 42
1.0
 10
76.26917992132485
 20
256.1290457694117
 42
1.0
 10
76.26543472104144
 20
256.1345938556793
 42
1.0
 10
76.24751261091771
 20
256.1611434139242
 42
1.0
 10
76.22475952365193
 20
256.1849648283629
 42
1.0
 10
76.19905965229334
 20
256.2040854373082
 42
1.0
 10
76.17335978093476
 20
256.2232060462536
 42
1.0
 10
76.14400429130005
 20
256.2381532197084
 42
1.0
 10
76.11342412424926
 20
256.2476891757399
 42
1.0
 10
76.08284395719848
 20
256.2572251317715
 42
1.0
 10
76.05019567396745
 20
256.261612883821
 42
1.0
 10
76.01818289308565
 20
256.2604890802337
 42
1.0
 10
75.98617011220384
 20
256.2593652766463
 42
1.0
 10
75.9539098816488
 20
256.2526989215315
 42
1.0
 10
75.92407368513912
 20
256.2410420586548
 42
1.0
 10
75.89423748863021
 20
256.2293851957784
 42
1.0
 10
75.86600240702856
 20
256.2124163144696
 42
1.0
 10
75.84170659971772
 20
256.1915406151675
 42
1.0
 10
75.81741079240689
 20
256.1706649158653
 42
1.0
 10
75.79638415102363
 20
256.1453066210082
 42
1.0
 10
75.78036790088288
 20
256.1175656620185
 42
1.0
 72
     1
 10
75.78036790088288
 20
256.1175656620185
 11
75.63346080021496
 21
255.8631150996695
 72
     2
 10
75.38560501528261
 20
256.0062147038342
 40
0.286199208343561
 50
30.00000000238558
 51
90.00000000102702
 73
     0
 72
     1
 10
75.38560501527748
 20
255.7200154954906
 11
74.17180864452924
 21
255.7200154955357
 72
     2
 10
74.17180864450481
 20
256.0062147039104
 40
0.286199208343561
 50
89.99999999510955
 51
149.9999999943553
 73
     0
 72
     1
 10
73.92395285955037
 20
255.8631150997142
 11
73.77704575893112
 21
256.1175656620212
 72
     4
 94
        3
 73
     1
 74
     0
 95
       26
 96
       22
 40
0.0
 40
0.0
 40
0.0
 40
0.0
 40
0.0000200815855283
 40
0.0000200815855283
 40
0.0000200815855283
 40
0.000117502677356
 40
0.000117502677356
 40
0.000117502677356
 40
0.0002149237691837
 40
0.0002149237691837
 40
0.0002149237691837
 40
0.0003123448610114
 40
0.0003123448610114
 40
0.0003123448610114
 40
0.0004097659528391
 40
0.0004097659528391
 40
0.0004097659528391
 40
0.0005071870446643
 40
0.0005071870446643
 40
0.0005071870446643
 40
0.0006046081364895
 40
0.0006046081364895
 40
0.0006046081364895
 40
0.0006046081364895
 10
73.7770457589311
 20
256.1175656620212
 42
1.0
 10
73.77369882800976
 20
256.1233627164264
 42
1.0
 10
73.77014620943594
 20
256.1290457694205
 42
1.0
 10
73.7664010091536
 20
256.1345938556865
 42
1.0
 10
73.74847889902988
 20
256.1611434139315
 42
1.0
 10
73.72572581176411
 20
256.1849648283701
 42
1.0
 10
73.70002594040554
 20
256.2040854373155
 42
1.0
 10
73.67432606904694
 20
256.2232060462609
 42
1.0
 10
73.64497057941226
 20
256.2381532197157
 42
1.0
 10
73.61439041236147
 20
256.2476891757473
 42
1.0
 10
73.58381024531069
 20
256.2572251317788
 42
1.0
 10
73.55116196207968
 20
256.2616128838284
 42
1.0
 10
73.51914918119788
 20
256.260489080241
 42
1.0
 10
73.48713640031605
 20
256.2593652766537
 42
1.0
 10
73.45487616976101
 20
256.2526989215389
 42
1.0
 10
73.42503997325134
 20
256.2410420586622
 42
1.0
 10
73.3952037767424
 20
256.2293851957858
 42
1.0
 10
73.36696869514076
 20
256.2124163144771
 42
1.0
 10
73.34267288782992
 20
256.1915406151749
 42
1.0
 10
73.31837708051907
 20
256.1706649158728
 42
1.0
 10
73.29735043913578
 20
256.1453066210157
 42
1.0
 10
73.28133418899503
 20
256.117565662026
 42
1.0
 72
     1
 10
73.28133418899503
 20
256.117565662026
 11
73.13442708838444
 21
255.8631150997098
 72
     2
 10
72.88657130345152
 20
256.0062147038746
 40
0.286199208343561
 50
30.00000000234839
 51
90.00000000102702
 73
     0
 72
     1
 10
72.88657130344639
 20
255.720015495531
 11
71.74515232696658
 21
255.7200154955754
 72
     2
 10
71.74515232714789
 20
256.006214703849
 40
0.286199208343561
 50
90.0000000362987
 51
115.0000000351158
 73
     0
 72
     1
 10
71.6241993150472
 20
255.7468301327576
 11
70.00381413258708
 21
256.5024281526258
 72
     4
 94
        3
 73
     1
 74
     0
 95
       29
 96
       25
 40
0.0
 40
0.0
 40
0.0
 40
0.0
 40
0.0000292734573812
 40
0.0000292734573812
 40
0.0000292734573812
 40
0.0000679458852329
 40
0.0000679458852329
 40
0.0000679458852329
 40
0.0001066183130846
 40
0.0001066183130846
 40
0.0001066183130846
 40
0.0001452907409363
 40
0.0001452907409363
 40
0.0001452907409363
 40
0.0001839631687881
 40
0.0001839631687881
 40
0.0001839631687881
 40
0.0002226355966398
 40
0.0002226355966398
 40
0.0002226355966398
 40
0.0002613080244905
 40
0.0002613080244905
 40
0.0002613080244905
 40
0.0002999804523412
 40
0.0002999804523412
 40
0.0002999804523412
 40
0.0002999804523412
 10
70.00381413259025
 20
256.5024281526327
 42
1.0
 10
69.99497054512973
 20
256.506551985188
 42
1.0
 10
69.98551966486716
 20
256.5095598560603
 42
1.0
 10
69.97591935933289
 20
256.5113060426955
 42
1.0
 10
69.96331319044413
 20
256.5135989617655
 42
1.0
 10
69.95013729886291
 20
256.5137470280529
 42
1.0
 10
69.93748278589983
 20
256.5117379801242
 42
1.0
 10
69.92482827293672
 20
256.5097289321954
 42
1.0
 10
69.91234611149989
 20
256.5055073580281
 42
1.0
 10
69.90106995480495
 20
256.4994228480147
 42
1.0
 10
69.88979379811003
 20
256.4933383380011
 42
1.0
 10
69.87941263583286
 20
256.4852230738427
 42
1.0
 10
69.87078613653524
 20
256.4757490840928
 42
1.0
 10
69.86215963723762
 20
256.466275094343
 42
1.0
 10
69.85504987141792
 20
256.4551810746668
 42
1.0
 10
69.85004560187485
 20
256.4433857256574
 42
1.0
 10
69.84504133233182
 20
256.431590376648
 42
1.0
 10
69.84200453513273
 20
256.4187683680161
 42
1.0
 10
69.84118668877403
 20
256.4059814958713
 42
1.0
 10
69.84036884241537
 20
256.3931946237269
 42
1.0
 10
69.84174738968461
 20
256.3800902103481
 42
1.0
 10
69.84520817248304
 20
256.3677534379044
 42
1.0
 10
69.84866895528148
 20
256.3554166654607
 42
1.0
 10
69.85430742627166
 20
256.3435072705362
 42
1.0
 10
69.86165666121936
 20
256.3330114753024
 42
1.0
 72
     1
 10
69.86165666121936
 20
256.3330114753024
 11
70.16474390809132
 21
255.9001580277316
 72
     2
 10
70.07096764146931
 20
255.8344951789352
 40
0.114479683346748
 50
324.9999999990015
 51
450.0000000011387
 73
     0
 72
     1
 10
70.07096764146704
 20
255.7200154955885
 11
68.49220653986846
 21
255.7200154956246
 72
     2
 10
68.49220653984118
 20
256.0062147039977
 40
0.286199208343561
 50
89.9999999945377
 51
149.9999999948599
 73
     0
 72
     1
 10
68.24435075488549
 20
255.8631150998037
 11
68.09744365427323
 21
256.1175656621079
 72
     4
 94
        3
 73
     1
 74
     0
 95
       26
 96
       22
 40
0.0
 40
0.0
 40
0.0
 40
0.0
 40
0.0000200815855342
 40
0.0000200815855342
 40
0.0000200815855342
 40
0.0001175026773618
 40
0.0001175026773618
 40
0.0001175026773618
 40
0.0002149237691895
 40
0.0002149237691895
 40
0.0002149237691895
 40
0.0003123448610172
 40
0.0003123448610172
 40
0.0003123448610172
 40
0.0004097659528449
 40
0.0004097659528449
 40
0.0004097659528449
 40
0.00050718704467
 40
0.00050718704467
 40
0.00050718704467
 40
0.0006046081364952
 40
0.0006046081364952
 40
0.0006046081364952
 40
0.0006046081364952
 10
68.09744365432996
 20
256.1175656621407
 42
1.0
 10
68.09409672340774
 20
256.1233627165477
 42
1.0
 10
68.09054410483296
 20
256.1290457695435
 42
1.0
 10
68.08679890454951
 20
256.1345938558111
 42
1.0
 10
68.06887679442576
 20
256.1611434140561
 42
1.0
 10
68.04612370715998
 20
256.1849648284947
 42
1.0
 10
68.0204238358014
 20
256.2040854374401
 42
1.0
 10
67.99472396444281
 20
256.2232060463855
 42
1.0
 10
67.9653684748081
 20
256.2381532198402
 42
1.0
 10
67.93478830775732
 20
256.2476891758718
 42
1.0
 10
67.90420814070653
 20
256.2572251319033
 42
1.0
 10
67.87155985747552
 20
256.2616128839529
 42
1.0
 10
67.8395470765937
 20
256.2604890803655
 42
1.0
 10
67.80753429571189
 20
256.2593652767781
 42
1.0
 10
67.77527406515686
 20
256.2526989216634
 42
1.0
 10
67.74543786864719
 20
256.2410420587866
 42
1.0
 10
67.71560167213828
 20
256.2293851959102
 42
1.0
 10
67.68736659053661
 20
256.2124163146015
 42
1.0
 10
67.66307078322579
 20
256.1915406152993
 42
1.0
 10
67.63877497591496
 20
256.1706649159972
 42
1.0
 10
67.61774833453168
 20
256.14530662114
 42
1.0
 10
67.60173208439095
 20
256.1175656621503
 42
1.0
 72
     1
 10
67.60173208439095
 20
256.1175656621503
 11
67.45482498371976
 21
255.8631150997964
 72
     2
 10
67.20696919879018
 20
256.0062147039666
 40
0.286199208343561
 50
30.00000000362384
 51
90.00000000092462
 73
     0
 97
        0
 75
     0
 76
     2
 52
90.0
 41
0.125
 77
     0
 78
     3
 53
135.0000020971719
 43
-0.841899000000003
 44
0.8418989999999972
 45
-1.683798043244235
 46
0.5612659459355116
 79
     2
 49
0.79375
 49
-1.5875
 53
135.0000020971719
 43
-0.841899000000007
 44
1.964431249999997
 45
-1.683798043244235
 46
0.5612659459355116
 79
     2
 49
0.79375
 49
-1.5875
 53
224.9999719140477
 43
0.0
 44
0.0
 45
0.5612657324384562
 46
-0.5612662826950531
 79
     0
 98
        1
 10
0.0
 20
0.0
  0
HATCH
  5
34F
330
1F
100
AcDbEntity
  8
0
  6
Continuous
 62
     7
370
    18
100
AcDbHatch
 10
0.0
 20
0.0
 30
0.0
210
0.0
220
0.0
230
1.0
  2
DIN 128 Elastomer-Gummi
 70
     0
 71
     0
 91
        1
 92
        0
 93
       74
 72
     1
 10
65.25762990769513
 20
171.0013150369705
 11
67.20696919878594
 21
171.0013150370538
 72
     2
 10
67.20696919879053
 20
170.7151158287103
 40
0.286199208343561
 50
269.9999999990819
 51
329.9999999963784
 73
     0
 72
     1
 10
67.45482498372013
 20
170.8582154328805
 11
67.60173208439133
 21
170.6037648705265
 72
     4
 94
        3
 73
     1
 74
     0
 95
       26
 96
       22
 40
0.0
 40
0.0
 40
0.0
 40
0.0
 40
0.0000200815855341
 40
0.0000200815855341
 40
0.0000200815855341
 40
0.0001175026773618
 40
0.0001175026773618
 40
0.0001175026773618
 40
0.0002149237691895
 40
0.0002149237691895
 40
0.0002149237691895
 40
0.0003123448610172
 40
0.0003123448610172
 40
0.0003123448610172
 40
0.0004097659528449
 40
0.0004097659528449
 40
0.0004097659528449
 40
0.00050718704467
 40
0.00050718704467
 40
0.00050718704467
 40
0.0006046081364952
 40
0.0006046081364952
 40
0.0006046081364952
 40
0.0006046081364952
 10
67.60173208439133
 20
170.6037648705265
 42
1.0
 10
67.60507901531376
 20
170.5979678161196
 42
1.0
 10
67.60863163388878
 20
170.592284763124
 42
1.0
 10
67.61237683417244
 20
170.5867366768565
 42
1.0
 10
67.63029894429721
 20
170.5601871186122
 42
1.0
 10
67.65305203156392
 20
170.5363657041746
 42
1.0
 10
67.67875190292324
 20
170.5172450952302
 42
1.0
 10
67.70445177428257
 20
170.4981244862858
 42
1.0
 10
67.73380726391787
 20
170.4831773128321
 42
1.0
 10
67.76438743096904
 20
170.4736413568018
 42
1.0
 10
67.79496759802021
 20
170.4641054007714
 42
1.0
 10
67.82761588125138
 20
170.4597176487231
 42
1.0
 10
67.85962866213315
 20
170.4608414523117
 42
1.0
 10
67.89164144301492
 20
170.4619652559004
 42
1.0
 10
67.92390167356969
 20
170.4686316110165
 42
1.0
 10
67.9537378700789
 20
170.4802884738943
 42
1.0
 10
67.98357406658737
 20
170.4919453367719
 42
1.0
 10
68.01180914818836
 20
170.5089142180818
 42
1.0
 10
68.03610495549837
 20
170.5297899173849
 42
1.0
 10
68.0604007628084
 20
170.550665616688
 42
1.0
 10
68.08142740419068
 20
170.5760239115459
 42
1.0
 10
68.09744365433033
 20
170.6037648705363
 42
1.0
 72
     1
 10
68.09744365427362
 20
170.603764870569
 11
68.24435075488586
 21
170.8582154328733
 72
     2
 10
68.49220653984153
 20
170.7151158286792
 40
0.286199208343561
 50
210.0000000051472
 51
270.000000005466
 73
     0
 72
     1
 10
68.49220653986883
 20
171.0013150370523
 11
70.0709676414674
 21
171.0013150370884
 72
     2
 10
70.07096764146968
 20
170.8868353537417
 40
0.114479683346748
 50
269.9999999988628
 51
395.0000000010001
 73
     0
 72
     1
 10
70.1647439080917
 20
170.8211725049453
 11
69.86165666121974
 21
170.3883190573745
 72
     4
 94
        3
 73
     1
 74
     0
 95
       29
 96
       25
 40
0.0
 40
0.0
 40
0.0
 40
0.0
 40
0.0000292734573812
 40
0.0000292734573812
 40
0.0000292734573812
 40
0.0000679458852329
 40
0.0000679458852329
 40
0.0000679458852329
 40
0.0001066183130846
 40
0.0001066183130846
 40
0.0001066183130846
 40
0.0001452907409364
 40
0.0001452907409364
 40
0.0001452907409364
 40
0.0001839631687881
 40
0.0001839631687881
 40
0.0001839631687881
 40
0.0002226355966398
 40
0.0002226355966398
 40
0.0002226355966398
 40
0.0002613080244905
 40
0.0002613080244905
 40
0.0002613080244905
 40
0.0002999804523413
 40
0.0002999804523413
 40
0.0002999804523413
 40
0.0002999804523413
 10
69.86165666121973
 20
170.3883190573745
 42
1.0
 10
69.85605980609544
 20
170.3803259198907
 42
1.0
 10
69.85145650339983
 20
170.3715409310339
 42
1.0
 10
69.84806976969627
 20
170.3623896978418
 42
1.0
 10
69.84362264695665
 20
170.3503732062052
 42
1.0
 10
69.84118886055839
 20
170.3374231974657
 42
1.0
 10
69.84096995341129
 20
170.3246120674775
 42
1.0
 10
69.84075104626419
 20
170.3118009374893
 42
1.0
 10
69.84274098063885
 20
170.2987753394697
 42
1.0
 10
69.8467749692045
 20
170.2866139288539
 42
1.0
 10
69.85080895777017
 20
170.2744525182381
 42
1.0
 10
69.85699826291219
 20
170.262819868306
 42
1.0
 10
69.86483034558069
 20
170.252679283856
 42
1.0
 10
69.87266242824921
 20
170.2425386994061
 42
1.0
 10
69.88235330695437
 20
170.2336104905987
 42
1.0
 10
69.89310047581716
 20
170.2266340062873
 42
1.0
 10
69.90384764467996
 20
170.2196575219758
 42
1.0
 10
69.91594752388696
 20
170.2144403421092
 42
1.0
 10
69.92839811718017
 20
170.2114145036204
 42
1.0
 10
69.94084871047306
 20
170.2083886651317
 42
1.0
 10
69.95399342058774
 20
170.2074707116593
 42
1.0
 10
69.96674372836446
 20
170.2087366593294
 42
1.0
 10
69.9794940361412
 20
170.2100026069996
 42
1.0
 10
69.99220161081107
 20
170.2134873722119
 42
1.0
 10
70.00381413259066
 20
170.2189023800442
 42
1.0
 72
     1
 10
70.00381413258745
 20
170.2189023800511
 11
71.62419931504759
 21
170.9745003999193
 72
     2
 10
71.74515232714828
 20
170.7151158288279
 40
0.286199208343561
 50
244.9999999648874
 51
269.9999999636993
 73
     0
 72
     1
 10
71.74515232696695
 20
171.0013150371014
 11
72.88657130344677
 21
171.001315037146
 72
     2
 10
72.88657130345189
 20
170.7151158288024
 40
0.286199208343561
 50
269.9999999989766
 51
329.9999999976574
 73
     0
 72
     1
 10
73.13442708838481
 20
170.8582154329671
 11
73.2813341889954
 21
170.6037648706509
 72
     4
 94
        3
 73
     1
 74
     0
 95
       26
 96
       22
 40
0.0
 40
0.0
 40
0.0
 40
0.0
 40
0.0000200815855283
 40
0.0000200815855283
 40
0.0000200815855283
 40
0.000117502677356
 40
0.000117502677356
 40
0.000117502677356
 40
0.0002149237691837
 40
0.0002149237691837
 40
0.0002149237691837
 40
0.0003123448610114
 40
0.0003123448610114
 40
0.0003123448610114
 40
0.0004097659528391
 40
0.0004097659528391
 40
0.0004097659528391
 40
0.0005071870446643
 40
0.0005071870446643
 40
0.0005071870446643
 40
0.0006046081364895
 40
0.0006046081364895
 40
0.0006046081364895
 40
0.0006046081364895
 10
73.2813341889954
 20
170.6037648706509
 42
1.0
 10
73.28468111991685
 20
170.5979678162457
 42
1.0
 10
73.28823373849077
 20
170.5922847632517
 42
1.0
 10
73.29197893877323
 20
170.5867366769858
 42
1.0
 10
73.30990104889747
 20
170.5601871187412
 42
1.0
 10
73.3326541361637
 20
170.536365704303
 42
1.0
 10
73.35835400752265
 20
170.5172450953581
 42
1.0
 10
73.3840538788816
 20
170.4981244864132
 42
1.0
 10
73.41340936851658
 20
170.483177312959
 42
1.0
 10
73.44398953556755
 20
170.473641356928
 42
1.0
 10
73.47456970261852
 20
170.4641054008971
 42
1.0
 10
73.5072179858496
 20
170.4597176488481
 42
1.0
 10
73.53923076673141
 20
170.4608414524361
 42
1.0
 10
73.5712435476132
 20
170.4619652560241
 42
1.0
 10
73.60350377816812
 20
170.4686316111394
 42
1.0
 10
73.63333997467755
 20
170.4802884740168
 42
1.0
 10
73.66317617118625
 20
170.4919453368937
 42
1.0
 10
73.69141125278757
 20
170.508914218203
 42
1.0
 10
73.71570706009801
 20
170.5297899175056
 42
1.0
 10
73.74000286740845
 20
170.5506656168082
 42
1.0
 10
73.76102950879125
 20
170.5760239116657
 42
1.0
 10
73.77704575893146
 20
170.6037648706557
 42
1.0
 72
     1
 10
73.7770457589315
 20
170.6037648706557
 11
73.92395285955075
 21
170.8582154329628
 72
     2
 10
74.17180864450518
 20
170.7151158287666
 40
0.286199208343561
 50
210.0000000056469
 51
270.0000000048941
 73
     0
 72
     1
 10
74.17180864452962
 20
171.0013150371413
 11
75.38560501527786
 21
171.0013150371863
 72
     2
 10
75.38560501528298
 20
170.7151158288428
 40
0.286199208343561
 50
269.9999999989766
 51
329.9999999976202
 73
     0
 72
     1
 10
75.63346080021533
 20
170.8582154330074
 11
75.78036790088326
 21
170.6037648706585
 72
     4
 94
        3
 73
     1
 74
     0
 95
       26
 96
       22
 40
0.0
 40
0.0
 40
0.0
 40
0.0
 40
0.0000200815855339
 40
0.0000200815855339
 40
0.0000200815855339
 40
0.0001175026773615
 40
0.0001175026773615
 40
0.0001175026773615
 40
0.0002149237691892
 40
0.0002149237691892
 40
0.0002149237691892
 40
0.0003123448610169
 40
0.0003123448610169
 40
0.0003123448610169
 40
0.0004097659528446
 40
0.0004097659528446
 40
0.0004097659528446
 40
0.0005071870446697
 40
0.0005071870446697
 40
0.0005071870446697
 40
0.0006046081364949
 40
0.0006046081364949
 40
0.0006046081364949
 40
0.0006046081364949
 10
75.78036790088326
 20
170.6037648706585
 42
1.0
 10
75.78371483180564
 20
170.5979678162516
 42
1.0
 10
75.78726745038061
 20
170.5922847632561
 42
1.0
 10
75.79101265066421
 20
170.5867366769887
 42
1.0
 10
75.80893476078896
 20
170.5601871187444
 42
1.0
 10
75.83168784805565
 20
170.5363657043067
 42
1.0
 10
75.85738771941494
 20
170.5172450953623
 42
1.0
 10
75.88308759077427
 20
170.4981244864179
 42
1.0
 10
75.91244308040953
 20
170.4831773129642
 42
1.0
 10
75.94302324746069
 20
170.4736413569339
 42
1.0
 10
75.97360341451184
 20
170.4641054009035
 42
1.0
 10
76.00625169774301
 20
170.4597176488551
 42
1.0
 10
76.03826447862478
 20
170.4608414524437
 42
1.0
 10
76.07027725950655
 20
170.4619652560323
 42
1.0
 10
76.10253749006134
 20
170.4686316111483
 42
1.0
 10
76.13237368657057
 20
170.4802884740262
 42
1.0
 10
76.16220988307903
 20
170.4919453369037
 42
1.0
 10
76.19044496468004
 20
170.5089142182136
 42
1.0
 10
76.21474077199008
 20
170.5297899175166
 42
1.0
 10
76.23903657930012
 20
170.5506656168197
 42
1.0
 10
76.26006322068244
 20
170.5760239116776
 42
1.0
 10
76.27607947082213
 20
170.6037648706679
 42
1.0
 72
     1
 10
76.2760794707649
 20
170.603764870701
 11
76.42298657138117
 21
170.8582154330032
 72
     2
 10
76.6708423563357
 20
170.7151158288072
 40
0.286199208343561
 50
210.0000000056074
 51
269.6843586562889
 73
     0
 72
     1
 10
76.66926569839531
 20
171.0013106941325
 11
77.90720383978385
 21
171.0081305413316
 72
     2
 10
77.90878049792741
 20
170.7219356758892
 40
0.286199208343561
 50
269.6843586157444
 51
330.0000000002877
 73
     0
 72
     1
 10
78.15663628289774
 20
170.8650352800604
 11
78.30354338355319
 21
170.6105847177283
 72
     4
 94
        3
 73
     1
 74
     0
 95
       26
 96
       22
 40
0.0
 40
0.0
 40
0.0
 40
0.0
 40
0.0000200815855724
 40
0.0000200815855724
 40
0.0000200815855724
 40
0.0001175026773999
 40
0.0001175026773999
 40
0.0001175026773999
 40
0.0002149237692273
 40
0.0002149237692273
 40
0.0002149237692273
 40
0.0003123448610548
 40
0.0003123448610548
 40
0.0003123448610548
 40
0.0004097659528822
 40
0.0004097659528822
 40
0.0004097659528822
 40
0.0005071870447071
 40
0.0005071870447071
 40
0.0005071870447071
 40
0.0006046081365321
 40
0.0006046081365321
 40
0.0006046081365321
 40
0.0006046081365321
 10
78.30354338355319
 20
170.6105847177283
 42
1.0
 10
78.3068903144819
 20
170.6047876633103
 42
1.0
 10
78.310442933064
 20
170.599104610304
 42
1.0
 10
78.31418813335544
 20
170.5935565240264
 42
1.0
 10
78.33211024348333
 20
170.5670069657842
 42
1.0
 10
78.35486333075282
 20
170.5431855513492
 42
1.0
 10
78.38056320211439
 20
170.5240649424078
 42
1.0
 10
78.40626307347597
 20
170.5049443334664
 42
1.0
 10
78.43561856311301
 20
170.4899971600162
 42
1.0
 10
78.46619873016529
 20
170.4804612039895
 42
1.0
 10
78.49677889721757
 20
170.4709252479627
 42
1.0
 10
78.52942718044926
 20
170.4665374959182
 42
1.0
 10
78.5614399613309
 20
170.4676612995106
 42
1.0
 10
78.59345274221253
 20
170.468785103103
 42
1.0
 10
78.62571297276654
 20
170.4754514582228
 42
1.0
 10
78.65554916927438
 20
170.4871083211042
 42
1.0
 10
78.68538536578147
 20
170.4987651839852
 42
1.0
 10
78.71362044738048
 20
170.5157340652984
 42
1.0
 10
78.73791625468806
 20
170.5366097646043
 42
1.0
 10
78.76221206199563
 20
170.5574854639103
 42
1.0
 10
78.78323870337493
 20
170.5828437587707
 42
1.0
 10
78.79925495351134
 20
170.6105847177629
 42
1.0
 72
     1
 10
78.79925495351311
 20
170.6105847177619
 11
79.45785672367684
 21
171.7513164459758
 72
     2
 10
78.26814895587391
 20
172.4381945457451
 40
1.37375619988166
 50
330.0000000082617
 51
339.0141809952355
 73
     1
 72
     1
 10
79.5507826643748
 20
171.9462017966553
 11
79.79819860124357
 21
172.5912194724771
 72
     2
 10
79.47754017391547
 20
172.7142176595111
 40
0.343439049949432
 50
339.0141810444967
 51
451.936579470084
 73
     1
 72
     1
 10
79.46593425126572
 20
173.0574605531042
 11
76.91024284363765
 21
172.9710460743184
 72
     4
 94
        3
 73
     1
 74
     0
 95
       11
 96
        7
 40
0.0
 40
0.0
 40
0.0
 40
0.0
 40
0.0000576585004983
 40
0.0000576585004983
 40
0.0000576585004983
 40
0.0000950565703646
 40
0.0000950565703646
 40
0.0000950565703646
 40
0.0000950565703646
 10
76.91024284363765
 20
172.9710460743184
 42
1.0
 10
76.89103432078586
 20
172.9703965849138
 42
1.0
 10
76.87144876524724
 20
172.9730545182987
 42
1.0
 10
76.85310806539137
 20
172.9787997698538
 42
1.0
 10
76.84111371915608
 20
172.982557016682
 42
1.0
 10
76.829465244535
 20
172.9876695203145
 42
1.0
 10
76.8185801200956
 20
172.9939540498338
 42
1.0
 72
     1
 10
76.8185801200955
 20
172.9939540498336
 11
76.5835985145408
 21
173.1296207429266
 72
     2
 10
76.49773875210927
 20
172.9809072719288
 40
0.171719524984892
 50
60.00000002346975
 51
115.7456652520458
 73
     1
 72
     1
 10
76.42314772055335
 20
173.1355803894142
 11
75.33557035744944
 21
172.6110967640088
 72
     4
 94
        3
 73
     1
 74
     0
 95
       38
 96
       34
 40
0.0
 40
0.0
 40
0.0
 40
0.0
 40
0.0002690730023324
 40
0.0002690730023324
 40
0.0002690730023324
 40
0.0005381460046649
 40
0.0005381460046649
 40
0.0005381460046649
 40
0.0008072190069973
 40
0.0008072190069973
 40
0.0008072190069973
 40
0.0010762920093297
 40
0.0010762920093297
 40
0.0010762920093297
 40
0.0013453650116622
 40
0.0013453650116622
 40
0.0013453650116622
 40
0.0016144380139946
 40
0.0016144380139946
 40
0.0016144380139946
 40
0.001883511016327
 40
0.001883511016327
 40
0.001883511016327
 40
0.0021525840186595
 40
0.0021525840186595
 40
0.0021525840186595
 40
0.0024216570209919
 40
0.0024216570209919
 40
0.0024216570209919
 40
0.0026907300233243
 40
0.0026907300233243
 40
0.0026907300233243
 40
0.002863031305315
 40
0.002863031305315
 40
0.002863031305315
 40
0.002863031305315
 10
75.33557035744944
 20
172.6110967640088
 42
1.0
 10
75.25478288321324
 20
172.5721370460042
 42
1.0
 10
75.16615484736616
 20
172.5465881253793
 42
1.0
 10
75.077025576091
 20
172.5365657193596
 42
1.0
 10
74.98789630481583
 20
172.5265433133398
 42
1.0
 10
74.89580750276428
 20
172.5317709915927
 42
1.0
 10
74.80838508367322
 20
172.551815847809
 42
1.0
 10
74.72096266458216
 20
172.5718607040253
 42
1.0
 10
74.63579541019394
 20
172.6072756000887
 42
1.0
 10
74.55993605787405
 20
172.6551278130581
 42
1.0
 10
74.48407670555419
 20
172.7029800260276
 42
1.0
 10
74.41543296070326
 20
172.7645893790192
 42
1.0
 10
74.35968924167783
 20
172.8348539747249
 42
1.0
 10
74.30394552265237
 20
172.9051185704305
 42
1.0
 10
74.25956434885575
 20
172.9859763931543
 42
1.0
 10
74.23022094458643
 20
173.0707315714407
 42
1.0
 10
74.20087754031711
 20
173.155486749727
 42
1.0
 10
74.18576257825546
 20
173.246476936039
 42
1.0
 10
74.18612773498162
 20
173.3361671934867
 42
1.0
 10
74.18649289170776
 20
173.4258574509343
 42
1.0
 10
74.20234823869507
 20
173.5167215475574
 42
1.0
 10
74.2323807877658
 20
173.6012349880078
 42
1.0
 10
74.26241333683656
 20
173.6857484284583
 42
1.0
 10
74.30745142277485
 20
173.7662421977714
 42
1.0
 10
74.36376542210215
 20
173.8360505719126
 42
1.0
 10
74.42007942142945
 20
173.9058589460537
 42
1.0
 10
74.48922254377726
 20
173.9669073261731
 42
1.0
 10
74.56546901712142
 20
174.01414026937
 42
1.0
 10
74.64171549046559
 20
174.0613732125669
 42
1.0
 10
74.7271682866813
 20
174.0960934617325
 42
1.0
 10
74.81475102256017
 20
174.1154258179375
 42
1.0
 10
74.8713069324796
 20
174.1279095452964
 42
1.0
 10
74.92956157032474
 20
174.1342624288688
 42
1.0
 10
74.98747887685384
 20
174.1342624288687
 42
1.0
 72
     1
 10
74.98747887685384
 20
174.1342624288687
 11
75.2503678811887
 21
174.1342624288689
 72
     2
 10
75.25036788118813
 20
174.7066608455113
 40
0.57239841664246
 50
270.0000000000577
 51
363.4434035112149
 73
     1
 72
     1
 10
75.82173289825742
 20
174.7410405581944
 11
75.68312886654535
 21
177.044535519843
 72
     2
 10
75.22603685278553
 20
177.0170317496902
 40
0.457918733412644
 50
3.443403511218447
 51
34.99999999719797
 73
     1
 72
     1
 10
75.60114191939158
 20
177.2796831449211
 11
74.99544058114856
 21
178.1447143035541
 72
     2
 10
74.76099991459179
 20
177.9805571815583
 40
0.286199208343561
 50
35.00000000161899
 51
155.7584100007382
 73
     1
 72
     1
 10
74.50003708846555
 20
178.0980662885955
 11
74.34538971330646
 21
177.7546272385617
 72
     1
 10
74.34538971330646
 20
177.7546272385617
 11
73.85502761316123
 21
176.6656369239105
 72
     4
 94
        3
 73
     1
 74
     0
 95
       20
 96
       16
 40
0.0000000000000016
 40
0.0000000000000016
 40
0.0000000000000016
 40
0.0000000000000016
 40
0.0000960975008423
 40
0.0000960975008423
 40
0.0000960975008423
 40
0.0001921950016847
 40
0.0001921950016847
 40
0.0001921950016847
 40
0.0002882925025295
 40
0.0002882925025295
 40
0.0002882925025295
 40
0.0003843900033744
 40
0.0003843900033744
 40
0.0003843900033744
 40
0.0003968838896682
 40
0.0003968838896682
 40
0.0003968838896682
 40
0.0003968838896682
 10
73.85502761317007
 20
176.6656369239065
 42
1.0
 10
73.84187554847675
 20
176.6364289751845
 42
1.0
 10
73.82349931349707
 20
176.6090889540819
 42
1.0
 10
73.80142065223936
 20
176.5858808996329
 42
1.0
 10
73.77934199098165
 20
176.562672845184
 42
1.0
 10
73.75295194670825
 20
176.5429566505925
 42
1.0
 10
73.72443589045939
 20
176.5283650225047
 42
1.0
 10
73.69591983420983
 20
176.5137733944167
 42
1.0
 10
73.66449125794499
 20
176.5039038777139
 42
1.0
 10
73.63275277573011
 20
176.4995737713658
 42
1.0
 10
73.60101429351523
 20
176.4952436650177
 42
1.0
 10
73.56809051882381
 20
176.4963335393448
 42
1.0
 10
73.53670788375285
 20
176.5027531413803
 42
1.0
 10
73.53257001445473
 20
176.5035995799954
 42
1.0
 10
73.52844987776616
 20
176.5045378670754
 42
1.0
 10
73.52435352814655
 20
176.5055666238258
 42
1.0
 72
     1
 10
73.52435352814527
 20
176.505566623826
 11
72.6724664702953
 21
176.7195094371394
 72
     2
 10
72.61669746315803
 20
176.4974459114972
 40
0.228959366651219
 50
75.90230451838151
 51
193.5831003839603
 73
     1
 72
     1
 10
72.39414201800918
 20
176.4436735634741
 11
72.49741483864064
 21
176.0162433057353
 72
     2
 10
72.33049825480792
 20
175.9759140446626
 40
0.171719524984892
 50
346.4168995957858
 51
435.2994334219532
 73
     0
 72
     1
 10
72.37407509100393
 20
175.8098157165307
 11
71.69365095975019
 21
175.6313025959035
 72
     4
 94
        3
 73
     1
 74
     0
 95
       11
 96
        7
 40
0.0000000000000001
 40
0.0000000000000001
 40
0.0000000000000001
 40
0.0000000000000001
 40
0.0000576585004983
 40
0.0000576585004983
 40
0.0000576585004983
 40
0.0000883831276569
 40
0.0000883831276569
 40
0.0000883831276569
 40
0.0000883831276569
 10
71.69365095975006
 20
175.631302595904
 42
1.0
 10
71.67506060524401
 20
175.6264253112113
 42
1.0
 10
71.65537180791553
 20
175.6246904177292
 42
1.0
 10
71.63621500563178
 20
175.6262415827414
 42
1.0
 10
71.62590227591429
 20
175.627076625317
 42
1.0
 10
71.6156237743155
 20
175.6288547333643
 42
1.0
 10
71.60562984011386
 20
175.6315325999596
 42
1.0
 72
     1
 10
71.60562984011386
 20
175.6315325999596
 11
71.37481041439504
 21
175.6933804786829
 72
     2
 10
71.30073660851097
 20
175.4169332719331
 40
0.286199208343561
 50
74.99999998344288
 51
136.061078943911
 73
     1
 72
     1
 10
71.09465030626264
 20
175.6155243666028
 11
70.90376914094361
 21
175.4174389809534
 72
     2
 10
70.73890009901433
 20
175.5763118566121
 40
0.22895936664645
 50
43.93892101951614
 51
90.0
 73
     0
 72
     1
 10
70.73890009901433
 20
175.3473524899656
 11
68.56731212935172
 21
175.3473524898789
 72
     2
 10
68.56731212934261
 20
175.9197509064786
 40
0.57239841664246
 50
89.9999999990882
 51
190.9999999993877
 73
     0
 72
     1
 10
68.0054302838028
 20
176.0289696733073
 11
68.11242974468459
 21
176.5794341798518
 72
     2
 10
67.7753006373955
 20
176.6449654399348
 40
0.343439049949432
 50
349.0000000018277
 51
526.2315424214474
 73
     1
 72
     2
 10
66.88577934831682
 20
176.8629336520418
 40
0.57239841664246
 50
13.76845758196017
 51
62.00000000259696
 73
     0
 72
     1
 10
67.15450412749122
 20
176.3575358478989
 11
64.65140662538012
 21
175.0266152976296
 72
     2
 10
64.54391671369802
 20
175.2287744192709
 40
0.22895936664645
 50
61.99999999801495
 51
90.0
 73
     0
 72
     1
 10
64.54391671369802
 20
174.9998150526245
 11
63.72961018161032
 21
174.9998150526179
 72
     2
 10
63.72961018161602
 20
174.6528094028936
 40
0.347005649717682
 50
90.00000000094093
 51
171.2885026203699
 73
     1
 72
     1
 10
63.38660775777644
 20
174.70536659247
 11
63.23927167500286
 21
173.7438114959549
 72
     2
 10
64.93665652562113
 20
173.4837265195485
 40
1.71719524983917
 50
171.2885026267471
 51
186.0000000087408
 73
     1
 72
     1
 10
63.22886825106105
 20
173.3042307386918
 11
63.29200624543783
 21
172.7035128493716
 72
     2
 10
64.65823686511712
 20
172.8471094738724
 40
1.37375619988166
 50
186.0000000009496
 51
210.0000000009415
 73
     1
 72
     1
 10
63.46852909742452
 20
172.1602313739121
 11
64.36715545215989
 21
170.6037648705066
 72
     4
 94
        3
 73
     1
 74
     0
 95
       26
 96
       22
 40
0.0
 40
0.0
 40
0.0
 40
0.0
 40
0.0000200815855286
 40
0.0000200815855286
 40
0.0000200815855286
 40
0.0001175026773563
 40
0.0001175026773563
 40
0.0001175026773563
 40
0.000214923769184
 40
0.000214923769184
 40
0.000214923769184
 40
0.0003123448610117
 40
0.0003123448610117
 40
0.0003123448610117
 40
0.0004097659528394
 40
0.0004097659528394
 40
0.0004097659528394
 40
0.0005071870446646
 40
0.0005071870446646
 40
0.0005071870446646
 40
0.0006046081364898
 40
0.0006046081364898
 40
0.0006046081364898
 40
0.0006046081364898
 10
64.36715545216089
 20
170.6037648705071
 42
1.0
 10
64.3705023830824
 20
170.5979678161018
 42
1.0
 10
64.37405500165637
 20
170.5922847631078
 42
1.0
 10
64.37780020193888
 20
170.5867366768417
 42
1.0
 10
64.39572231206316
 20
170.5601871185971
 42
1.0
 10
64.41847539932941
 20
170.536365704159
 42
1.0
 10
64.44417527068836
 20
170.5172450952141
 42
1.0
 10
64.46987514204733
 20
170.4981244862692
 42
1.0
 10
64.49923063168234
 20
170.483177312815
 42
1.0
 10
64.52981079873332
 20
170.4736413567841
 42
1.0
 10
64.5603909657843
 20
170.4641054007532
 42
1.0
 10
64.59303924901539
 20
170.4597176487042
 42
1.0
 10
64.62505202989719
 20
170.4608414522922
 42
1.0
 10
64.65706481077898
 20
170.4619652558802
 42
1.0
 10
64.68932504133387
 20
170.4686316109957
 42
1.0
 10
64.71916123784331
 20
170.480288473873
 42
1.0
 10
64.748997434352
 20
170.49194533675
 42
1.0
 10
64.7772325159533
 20
170.5089142180594
 42
1.0
 10
64.80152832326372
 20
170.529789917362
 42
1.0
 10
64.82582413057413
 20
170.5506656166646
 42
1.0
 10
64.84685077195691
 20
170.5760239115222
 42
1.0
 10
64.86286702209709
 20
170.6037648705122
 42
1.0
 72
     1
 10
64.86286702209709
 20
170.6037648705122
 11
65.00977412269718
 21
170.8582154328296
 72
     2
 10
65.25762990766785
 20
170.7151158286269
 40
0.286199208343561
 50
210.0000000051445
 51
270.0000000054631
 73
     0
 97
        0
 75
     0
 76
     2
 52
90.0
 41
0.125
 77
     0
 78
     3
 53
135.0000020971719
 43
-0.841899000000003
 44
0.8418989999999972
 45
-1.683798043244235
 46
0.5612659459355116
 79
     2
 49
0.79375
 49
-1.5875
 53
135.0000020971719
 43
-0.841899000000007
 44
1.964431249999997
 45
-1.683798043244235
 46
0.5612659459355116
 79
     2
 49
0.79375
 49
-1.5875
 53
224.9999719140477
 43
0.0
 44
0.0
 45
0.5612657324384562
 46
-0.5612662826950531
 79
     0
 98
        1
 10
0.0
 20
0.0
  0
DIMENSION
  5
350
330
1F
100
AcDbEntity
  8
0
  6
Continuous
 62
     7
370
    18
100
AcDbDimension
  2
_D
 10
46.4573239707
 20
251.3606652663
 30
0.0
 11
46.4573239707
 21
213.3606652663
 31
0.0
 70
   160
  1
%%c<>
 71
     2
 42
-1.0
  3
SLDDIMSTYLE0
100
AcDbAlignedDimension
 13
56.4573239707
 23
175.3606652663
 33
0.0
 14
56.4573239707
 24
251.3606652663
 34
0.0
 50
90.0
100
AcDbRotatedDimension
  0
DIMENSION
  5
35C
330
1F
100
AcDbEntity
  8
0
  6
Continuous
 62
     7
370
    18
100
AcDbDimension
  2
_D_1
 10
181.7041700044
 20
140.4442472271
 30
0.0
 11
200.4541700044
 21
172.920199869
 31
0.0
 70
   160
  1
%%c<>
 71
     2
 42
-1.0
  3
SLDDIMSTYLE0
100
AcDbAlignedDimension
 13
205.4565376106
 23
213.3333517742
 33
0.0
 14
167.9565376106
 24
148.3814464904
 34
0.0
 50
60.0
100
AcDbRotatedDimension
  0
DIMENSION
  5
367
330
1F
100
AcDbEntity
  8
0
  6
Continuous
 62
     7
370
    18
100
AcDbDimension
  2
_D_2
 10
209.8953816772
 20
266.9606652663
 30
0.0
 11
133.1763528239
 21
266.9606652663
 31
0.0
 70
   160
  1
<>
 71
     2
 42
-1.0
  3
SLDDIMSTYLE1
100
AcDbAlignedDimension
 13
56.4573239707
 23
252.3606652663
 33
0.0
 14
209.8953816772
 24
209.130909193
 34
0.0
 50
0.0
100
AcDbRotatedDimension
  0
DIMENSION
  5
372
330
1F
100
AcDbEntity
  8
0
  6
Continuous
 62
     7
370
    18
100
AcDbDimension
  2
_D_3
 10
132.6456810631
 20
213.3606652663
 30
0.0
 11
158.5561963466
 21
205.8187081646
 31
0.0
 70
   162
  1
<>
 71
     1
 42
-1.0
  3
SLDDIMSTYLE2
100
AcDb2LineAngularDimension
 13
128.2579361657
 23
214.6027149102
 33
0.0
 14
194.1091428657
 24
176.5835029956
 34
0.0
 15
54.4573239707
 25
213.3606652663
 35
0.0
 16
158.5561963466
 26
205.8187081646
 36
0.0
  0
MTEXT
  5
37C
330
1F
100
AcDbEntity
  8
0
  6
Continuous
 62
     7
370
     0
100
AcDbMText
 10
133.508783941
 20
280.9310510804
 30
0.0
 40
5.0
 41
0.0
 71
     2
 72
     1
  1
A-A
  7
SLDTEXTSTYLE0
 73
     1
 44
1.0
  0
LINE
  5
37D
330
1F
100
AcDbEntity
  8
0
  6
CENTERX2
 62
     7
370
    18
100
AcDbLine
 10
54.4573239707
 20
213.3606652663
 30
0.0
 11
132.6456810631
 21
213.3606652663
 31
0.0
  0
LINE
  5
37E
330
1F
100
AcDbEntity
  8
0
  6
CENTERX2
 62
     7
370
    18
100
AcDbLine
 10
194.1091428657
 20
176.5835029956
 30
0.0
 11
128.2579361657
 21
214.6027149102
 31
0.0
  0
CIRCLE
  5
37F
330
1F
100
AcDbEntity
  8
0
  6
Continuous
 62
     7
370
    25
100
AcDbCircle
 10
278.9224279902
 20
213.3606652663
 30
0.0
 40
36.37226077645417
  0
CIRCLE
  5
380
330
1F
100
AcDbEntity
  8
0
  6
Continuous
 62
     7
370
    25
100
AcDbCircle
 10
278.9224279902
 20
213.3606652663
 30
0.0
 40
35.09390887643661
  0
LINE
  5
381
330
1F
100
AcDbEntity
  8
0
  6
Continuous
 62
     7
370
    25
100
AcDbLine
 10
241.4224279902
 20
191.1185880252
 30
0.0
 11
241.4224279902
 21
180.8573991323
 31
0.0
  0
LINE
  5
382
330
1F
100
AcDbEntity
  8
0
  6
Continuous
 62
     7
370
    25
100
AcDbLine
 10
316.4224279902
 20
180.8573991323
 30
0.0
 11
316.4224279902
 21
191.1185880252
 31
0.0
  0
ARC
  5
383
330
1F
100
AcDbEntity
  8
0
  6
Continuous
 62
     7
370
    25
100
AcDbCircle
 10
288.5836043003
 20
180.5713255544
 30
0.0
 40
27.80365566852237
100
AcDbArc
 50
336.4338712992
 51
354.5286855071
  0
ARC
  5
384
330
1F
100
AcDbEntity
  8
0
  6
Continuous
 62
     7
370
    25
100
AcDbCircle
 10
269.7847513558
 20
180.7449886985
 30
0.0
 40
28.3500959472448
100
AcDbArc
 50
180.0744926926
 51
203.6311335553
  0
LINE
  5
385
330
1F
100
AcDbEntity
  8
0
  6
Continuous
 62
     7
370
    25
100
AcDbLine
 10
245.1465828721
 20
166.6246719224
 30
0.0
 11
246.3740786385
 21
164.4021863086
 31
0.0
  0
LINE
  5
386
330
1F
100
AcDbEntity
  8
0
  6
Continuous
 62
     7
370
    25
100
AcDbLine
 10
311.470777342
 20
164.4021863086
 30
0.0
 11
312.6982731084
 21
166.6246719224
 31
0.0
  0
LINE
  5
387
330
1F
100
AcDbEntity
  8
0
  6
Continuous
 62
     7
370
    25
100
AcDbLine
 10
241.4224279902
 20
180.8573991323
 30
0.0
 11
241.4228126115
 21
180.7103112889
 31
0.0
  0
LWPOLYLINE
  5
388
330
1F
100
AcDbEntity
  8
0
  6
Continuous
 62
     7
370
    25
100
AcDbPolyline
 90
        3
 70
   128
 43
0.0
 10
316.2739710998
 20
177.9705027883
 10
316.3692790781
 20
179.1289583026
 10
316.4224279902
 20
180.8573991323
  0
LWPOLYLINE
  5
389
330
1F
100
AcDbEntity
  8
0
  6
Continuous
 62
     7
370
    25
100
AcDbPolyline
 90
       39
 70
   128
 43
0.0
 10
310.0946752173
 20
197.240074612
 10
309.133076423
 20
198.5351381814
 10
307.9798248885
 20
199.925568787
 10
306.7413430024
 20
201.2598892353
 10
305.4212634454
 20
202.5341857344
 10
304.0234582384
 20
203.7447205533
 10
302.5520273848
 20
204.8879429846
 10
301.0112868448
 20
205.9604997601
 10
299.405755876
 20
206.9592448859
 10
297.7401437772
 20
207.8812488705
 10
296.0193360758
 20
208.7238073173
 10
294.2483801972
 20
209.4844488573
 10
292.4324706601
 20
210.1609423977
 10
290.5769338402
 20
210.7513036664
 10
288.6872123466
 20
211.2538010322
 10
286.7688490579
 20
211.6669605836
 10
284.8274708644
 20
211.9895704525
 10
282.8687721627
 20
212.2206843687
 10
280.8984981536
 20
212.359624435
 10
278.9224279902
 20
212.4059831165
 10
276.9463578269
 20
212.359624435
 10
274.9760838178
 20
212.2206843687
 10
273.0173851161
 20
211.9895704525
 10
271.0760069225
 20
211.6669605836
 10
269.1576436339
 20
211.2538010322
 10
267.2679221403
 20
210.7513036664
 10
265.4123853203
 20
210.1609423977
 10
263.5964757833
 20
209.4844488573
 10
261.8255199047
 20
208.7238073173
 10
260.1047122033
 20
207.8812488705
 10
258.4391001045
 20
206.9592448859
 10
256.8335691357
 20
205.9604997601
 10
255.2928285957
 20
204.8879429846
 10
253.8213977421
 20
203.7447205533
 10
252.423592535
 20
202.5341857344
 10
251.1035129781
 20
201.2598892353
 10
249.865031092
 20
199.925568787
 10
248.7117795575
 20
198.5351381814
 10
247.7501807632
 20
197.240074612
  0
ARC
  5
38A
330
1F
100
AcDbEntity
  8
0
  6
Continuous
 62
     7
370
    25
100
AcDbCircle
 10
272.2173342378
 20
181.5519960218
 30
0.0
 40
30.91319131789216
100
AcDbArc
 50
203.2713291648
 51
216.1970668067
  0
ARC
  5
38B
330
1F
100
AcDbEntity
  8
0
  6
Continuous
 62
     7
370
    25
100
AcDbCircle
 10
285.6968087851
 20
181.5121726287
 30
0.0
 40
30.83371196791267
100
AcDbArc
 50
323.8392902284
 51
336.8940866567
  0
LWPOLYLINE
  5
38C
330
1F
100
AcDbEntity
  8
0
  6
Continuous
 62
     7
370
    25
100
AcDbPolyline
 90
       43
 70
   128
 43
0.0
 10
246.3740786385
 20
164.4021863086
 10
247.0453134266
 20
163.248730412
 10
248.0070210741
 20
161.7756154614
 10
249.0594089367
 20
160.3497512684
 10
250.1993901796
 20
158.9753201383
 10
251.4236210412
 20
157.6563535144
 10
252.7285106417
 20
156.396720153
 10
254.1102315148
 20
155.2001147759
 10
255.5647308353
 20
154.0700472328
 10
257.087742306
 20
153.0098322065
 10
258.674798672
 20
152.0225794904
 10
260.3212448233
 20
151.1111848667
 10
262.0222514498
 20
150.278321613
 10
263.7728292059
 20
149.5264326606
 10
265.5678433456
 20
148.8577234294
 10
267.4020287829
 20
148.2741553588
 10
269.2700055361
 20
147.7774401546
 10
271.1662945074
 20
147.3690347678
 10
273.0853335546
 20
147.050137122
 10
275.0214938055
 20
146.8216825989
 10
276.9690961685
 20
146.684341295
 10
278.9224279902
 20
146.6385160559
 10
280.875759812
 20
146.684341295
 10
282.823362175
 20
146.8216825989
 10
284.7595224259
 20
147.050137122
 10
286.678561473
 20
147.3690347678
 10
288.5748504444
 20
147.7774401546
 10
290.4428271975
 20
148.2741553588
 10
292.2770126349
 20
148.8577234294
 10
294.0720267745
 20
149.5264326606
 10
295.8226045307
 20
150.278321613
 10
297.5236111572
 20
151.1111848667
 10
299.1700573085
 20
152.0225794904
 10
300.7571136744
 20
153.0098322065
 10
302.2801251452
 20
154.0700472328
 10
303.7346244657
 20
155.2001147759
 10
305.1163453388
 20
156.396720153
 10
306.4212349392
 20
157.6563535144
 10
307.6454658009
 20
158.9753201383
 10
308.7854470437
 20
160.3497512684
 10
309.8378349064
 20
161.7756154614
 10
310.7995425538
 20
163.248730412
 10
311.470777342
 20
164.4021863086
  0
LWPOLYLINE
  5
38D
330
1F
100
AcDbEntity
  8
0
  6
Continuous
 62
     7
370
    25
100
AcDbPolyline
 90
       38
 70
   128
 43
0.0
 10
249.4487844827
 20
194.3110779056
 10
250.1195790552
 20
195.1804965754
 10
251.2634982168
 20
196.5283422443
 10
252.4914166391
 20
197.8195678227
 10
253.7996051742
 20
199.0502519011
 10
255.1840908965
 20
200.2166569324
 10
256.6406691683
 20
201.3152405828
 10
258.1649164093
 20
202.3426664899
 10
259.7522035308
 20
203.2958143949
 10
261.3977099938
 20
204.171789619
 10
263.0964384495
 20
204.9679318543
 10
264.8432299153
 20
205.6818232429
 10
266.6327794428
 20
206.3112957201
 10
268.4596522291
 20
206.8544375988
 10
270.3183001215
 20
207.3095993748
 10
272.2030784675
 20
207.6753987369
 10
274.1082632571
 20
207.9507247644
 10
276.0280685068
 20
208.1347413012
 10
277.9566638311
 20
208.2268894951
 10
279.8881921494
 20
208.2268894951
 10
281.8167874737
 20
208.1347413012
 10
283.7365927234
 20
207.9507247644
 10
285.641777513
 20
207.6753987369
 10
287.5265558589
 20
207.3095993748
 10
289.3852037513
 20
206.8544375988
 10
291.2120765376
 20
206.3112957201
 10
293.0016260652
 20
205.6818232429
 10
294.748417531
 20
204.9679318543
 10
296.4471459866
 20
204.171789619
 10
298.0926524497
 20
203.2958143949
 10
299.6799395712
 20
202.3426664899
 10
301.2041868122
 20
201.3152405828
 10
302.660765084
 20
200.2166569324
 10
304.0452508063
 20
199.0502519011
 10
305.3534393413
 20
197.8195678227
 10
306.5813577636
 20
196.5283422443
 10
307.7252769253
 20
195.1804965754
 10
308.3960714978
 20
194.3110779056
  0
CIRCLE
  5
38E
330
1F
100
AcDbEntity
  8
0
  6
Continuous
 62
     7
370
    25
100
AcDbCircle
 10
278.9224279902
 20
213.3606652663
 30
0.0
 40
39.0
  0
CIRCLE
  5
38F
330
1F
100
AcDbEntity
  8
0
  6
Continuous
 62
     7
370
    25
100
AcDbCircle
 10
278.9224279902
 20
213.3606652663
 30
0.0
 40
37.99999999999997
  0
CIRCLE
  5
390
330
1F
100
AcDbEntity
  8
0
  6
Continuous
 62
     7
370
    25
100
AcDbCircle
 10
278.9224279902
 20
213.3606652663
 30
0.0
 40
43.60000000000002
  0
CIRCLE
  5
391
330
1F
100
AcDbEntity
  8
0
  6
Continuous
 62
     8
370
    18
100
AcDbCircle
 10
278.9224279902
 20
213.3606652663
 30
0.0
 40
37.00312941843947
  0
CIRCLE
  5
392
330
1F
100
AcDbEntity
  8
0
  6
Continuous
 62
     8
370
    18
100
AcDbCircle
 10
278.9224279902
 20
213.3606652663
 30
0.0
 40
36.63396174688117
  0
CIRCLE
  5
393
330
1F
100
AcDbEntity
  8
0
  6
Continuous
 62
     8
370
    18
100
AcDbCircle
 10
278.9224279902
 20
213.3606652663
 30
0.0
 40
35.60603802777678
  0
CIRCLE
  5
394
330
1F
100
AcDbEntity
  8
0
  6
Continuous
 62
     8
370
    18
100
AcDbCircle
 10
278.9224279902
 20
213.3606652663
 30
0.0
 40
35.26259897774298
  0
LWPOLYLINE
  5
395
330
1F
100
AcDbEntity
  8
0
  6
Continuous
 62
     8
370
    18
100
AcDbPolyline
 90
       59
 70
   128
 43
0.0
 10
241.4228126115
 20
180.7103112889
 10
241.4755769024
 20
179.1289583026
 10
241.6348729824
 20
177.4054169262
 10
241.8998646882
 20
175.6916605685
 10
242.2698008721
 20
173.992547058
 10
242.7436329097
 20
172.3128927165
 10
243.3200176727
 20
170.6574587067
 10
243.9973213358
 20
169.0309375363
 10
244.7736240082
 20
167.4379397562
 10
245.6467251756
 20
165.8829808917
 10
246.614149938
 20
164.3704686426
 10
247.6731560246
 20
162.9046903892
 10
248.8207415678
 20
161.4898010392
 10
250.0536536116
 20
160.1298112502
 10
251.3683973329
 20
158.8285760611
 10
252.7612459477
 20
157.5897839644
 10
254.2282512753
 20
156.4169464507
 10
255.7652549298
 20
155.3133880556
 10
257.3679001072
 20
154.2822369351
 10
259.0316439357
 20
153.3264159992
 10
260.7517703528
 20
152.4486346261
 10
262.523403473
 20
151.6513809825
 10
264.34152141
 20
150.9369149705
 10
266.2009705108
 20
150.3072618216
 10
268.096479965
 20
149.7642063561
 10
270.0226767451
 20
149.3092879237
 10
271.974100837
 20
148.94379604
 10
273.9452207171
 20
148.6687667317
 10
275.930449032
 20
148.4849795991
 10
277.9241584363
 20
148.3929556067
 10
279.9206975442
 20
148.3929556067
 10
281.9144069485
 20
148.4849795991
 10
283.8996352634
 20
148.6687667317
 10
285.8707551435
 20
148.94379604
 10
287.8221792354
 20
149.3092879237
 10
289.7483760155
 20
149.7642063561
 10
291.6438854697
 20
150.3072618216
 10
293.5033345705
 20
150.9369149705
 10
295.3214525074
 20
151.6513809825
 10
297.0930856277
 20
152.4486346261
 10
298.8132120447
 20
153.3264159992
 10
300.4769558733
 20
154.2822369351
 10
302.0796010507
 20
155.3133880556
 10
303.6166047052
 20
156.4169464507
 10
305.0836100328
 20
157.5897839644
 10
306.4764586476
 20
158.8285760611
 10
307.7912023689
 20
160.1298112502
 10
309.0241144126
 20
161.4898010392
 10
310.1716999558
 20
162.9046903892
 10
311.2307060425
 20
164.3704686426
 10
312.1981308049
 20
165.8829808917
 10
313.0712319723
 20
167.4379397562
 10
313.8475346447
 20
169.0309375363
 10
314.5248383078
 20
170.6574587067
 10
315.1012230708
 20
172.3128927165
 10
315.5750551084
 20
173.992547058
 10
315.9449912923
 20
175.6916605685
 10
316.2099829981
 20
177.4054169262
 10
316.2739710998
 20
177.9705027883
  0
LWPOLYLINE
  5
396
330
1F
100
AcDbEntity
  8
0
  6
Continuous
 62
     8
370
    18
100
AcDbPolyline
 90
       40
 70
   128
 43
0.0
 10
247.2706810827
 20
163.2957671173
 10
247.722584129
 20
162.6913524042
 10
248.8683544946
 20
161.278701036
 10
250.0993163968
 20
159.9208623921
 10
251.4119805403
 20
158.6216854137
 10
252.8026260361
 20
157.3848527593
 10
254.2673109483
 20
156.2138703652
 10
255.8018834684
 20
155.1120575083
 10
257.401993684
 20
154.0825373969
 10
259.0631059087
 20
153.1282283175
 10
260.7805115395
 20
152.251835363
 10
262.5493424036
 20
151.4558427643
 10
264.3645845576
 20
150.7425068491
 10
266.2210925005
 20
150.1138496454
 10
268.1136037588
 20
149.5716531503
 10
270.0367538037
 20
149.1174542788
 10
271.9850912575
 20
148.7525405069
 10
273.953093346
 20
148.4779462224
 10
275.9351815534
 20
148.2944497925
 10
277.9257374354
 20
148.2025713579
 10
279.9191185451
 20
148.2025713579
 10
281.9096744271
 20
148.2944497925
 10
283.8917626345
 20
148.4779462224
 10
285.859764723
 20
148.7525405069
 10
287.8081021768
 20
149.1174542788
 10
289.7312522217
 20
149.5716531503
 10
291.62376348
 20
150.1138496454
 10
293.4802714229
 20
150.7425068491
 10
295.2955135769
 20
151.4558427643
 10
297.064344441
 20
152.251835363
 10
298.7817500718
 20
153.1282283175
 10
300.4428622965
 20
154.0825373969
 10
302.0429725121
 20
155.1120575083
 10
303.5775450322
 20
156.2138703652
 10
305.0422299444
 20
157.3848527593
 10
306.4328754402
 20
158.6216854137
 10
307.7455395837
 20
159.9208623921
 10
308.9765014859
 20
161.278701036
 10
310.1222718515
 20
162.6913524042
 10
310.590872551
 20
163.3186742588
  0
CIRCLE
  5
397
330
1F
100
AcDbEntity
  8
0
  6
Continuous
 62
     8
370
    18
100
AcDbCircle
 10
278.9224279902
 20
213.3606652663
 30
0.0
 40
40.37864714073726
  0
CIRCLE
  5
398
330
1F
100
AcDbEntity
  8
0
  6
Continuous
 62
     8
370
    18
100
AcDbCircle
 10
278.9224279902
 20
213.3606652663
 30
0.0
 40
41.53202928889226
  0
INSERT
  5
3A4
330
1F
100
AcDbEntity
  8
0
  6
Continuous
 62
     7
370
     0
100
AcDbBlockReference
  2
SW_CENTERMARKSYMBOL_0
 10
278.9224279902
 20
213.3606652663
 30
0.0
  0
ENDSEC
  0
SECTION
  2
OBJECTS
  0
DICTIONARY
  5
C
330
0
100
AcDbDictionary
281
     1
  3
ACAD_GROUP
350
D
  3
ACAD_LAYOUT
350
1A
  3
ACAD_MLINESTYLE
350
17
  3
ACAD_PLOTSETTINGS
350
19
  3
ACAD_PLOTSTYLENAME
350
E
  3
ACAD_SCALELIST
350
47
  3
DWGPROPS
350
3A5
  0
DICTIONARY
  5
D
102
{ACAD_REACTORS
330
C
102
}
330
C
100
AcDbDictionary
281
     1
  0
DICTIONARY
  5
1A
102
{ACAD_REACTORS
330
C
102
}
330
C
100
AcDbDictionary
281
     1
  3
Layout1
350
1E
  3
Layout2
350
26
  3
Model
350
22
  0
DICTIONARY
  5
17
102
{ACAD_REACTORS
330
C
102
}
330
C
100
AcDbDictionary
281
     1
  3
Standard
350
18
  0
DICTIONARY
  5
19
102
{ACAD_REACTORS
330
C
102
}
330
C
100
AcDbDictionary
281
     1
  0
ACDBDICTIONARYWDFLT
  5
E
102
{ACAD_REACTORS
330
C
102
}
330
C
100
AcDbDictionary
281
     1
  3
Normal
350
F
100
AcDbDictionaryWithDefault
340
F
  0
DICTIONARY
  5
47
102
{ACAD_REACTORS
330
C
102
}
330
C
100
AcDbDictionary
281
     1
  3
A0
350
48
  3
A1
350
49
  3
A2
350
4A
  3
A3
350
4B
  3
A4
350
4C
  3
A5
350
4D
  3
A6
350
4E
  3
A7
350
4F
  3
A8
350
50
  3
A9
350
51
  3
B0
350
52
  3
B1
350
53
  3
B2
350
54
  3
B3
350
55
  3
B4
350
56
  3
B5
350
57
  3
B6
350
58
  3
B7
350
59
  3
B8
350
5A
  3
B9
350
5B
  3
C0
350
5C
  3
C1
350
5D
  3
C2
350
5E
  3
C3
350
5F
  3
C4
350
60
  3
C5
350
61
  3
C6
350
62
  3
C7
350
63
  3
C8
350
64
  3
C9
350
65
  3
D0
350
66
  3
D1
350
67
  3
D2
350
68
  0
XRECORD
  5
3A5
102
{ACAD_REACTORS
330
C
102
}
330
C
100
AcDbXrecord
280
     1
  1
DWGPROPS COOKIE
  2

  3

  4

  6

  7

  8
ch-ntl-rs-wscad
  9

300
=
301
=
302
=
303
=
304
=
305
=
306
=
307
=
308
=
309
=
 40
0.0
 41
2460209.55426397
 42
2460209.554271922
  1

 90
        0
  0
LAYOUT
  5
1E
102
{ACAD_REACTORS
330
1A
102
}
330
1A
100
AcDbPlotSettings
  1

  2
none_device
  4

  6

 40
0.0
 41
0.0
 42
0.0
 43
0.0
 44
0.0
 45
0.0
 46
0.0
 47
0.0
 48
0.0
 49
0.0
140
0.0
141
0.0
142
1.0
143
1.0
 70
   688
 72
     1
 73
     0
 74
     5
  7

 75
    16
147
1.0
148
0.0
149
0.0
100
AcDbLayout
  1
Layout1
 70
     1
 71
     1
 10
0.0
 20
0.0
 11
420.0
 21
297.0
 12
0.0
 22
0.0
 32
0.0
 14
1.0000000000E+20
 24
1.0000000000E+20
 34
1.0000000000E+20
 15
-1.0000000000E+20
 25
-1.0000000000E+20
 35
-1.0000000000E+20
146
0.0
 13
0.0
 23
0.0
 33
0.0
 16
1.0
 26
0.0
 36
0.0
 17
0.0
 27
1.0
 37
0.0
 76
     0
330
1B
  0
LAYOUT
  5
26
102
{ACAD_REACTORS
330
1A
102
}
330
1A
100
AcDbPlotSettings
  1

  2
none_device
  4

  6

 40
0.0
 41
0.0
 42
0.0
 43
0.0
 44
0.0
 45
0.0
 46
0.0
 47
0.0
 48
0.0
 49
0.0
140
0.0
141
0.0
142
1.0
143
1.0
 70
   688
 72
     1
 73
     0
 74
     5
  7

 75
    16
147
1.0
148
0.0
149
0.0
100
AcDbLayout
  1
Layout2
 70
     1
 71
     2
 10
0.0
 20
0.0
 11
0.0
 21
0.0
 12
0.0
 22
0.0
 32
0.0
 14
0.0
 24
0.0
 34
0.0
 15
0.0
 25
0.0
 35
0.0
146
0.0
 13
0.0
 23
0.0
 33
0.0
 16
1.0
 26
0.0
 36
0.0
 17
0.0
 27
1.0
 37
0.0
 76
     0
330
23
  0
LAYOUT
  5
22
102
{ACAD_REACTORS
330
1A
102
}
330
1A
100
AcDbPlotSettings
  1

  2
none_device
  4
Letter_(8.50_x_11.00_Inches)
  6

 40
6.35
 41
6.35
 42
6.35000508
 43
6.35000508
 44
215.9
 45
279.4
 46
0.0
 47
0.0
 48
0.0
 49
0.0
140
0.0
141
0.0
142
1.0
143
1.0
 70
  1712
 72
     1
 73
     0
 74
     0
  7

 75
     0
147
1.0
148
0.0
149
0.0
100
AcDbLayout
  1
Model
 70
     1
 71
     0
 10
0.0
 20
0.0
 11
420.0
 21
297.0
 12
0.0
 22
0.0
 32
0.0
 14
0.0
 24
0.0
 34
0.0
 15
420.0
 25
297.0
 35
0.0
146
0.0
 13
0.0
 23
0.0
 33
0.0
 16
1.0
 26
0.0
 36
0.0
 17
0.0
 27
1.0
 37
0.0
 76
     0
330
1F
331
29
  0
MLINESTYLE
  5
18
102
{ACAD_REACTORS
330
17
102
}
330
17
100
AcDbMlineStyle
  2
Standard
 70
     0
  3

 62
   256
 51
90.0
 52
90.0
 71
     2
 49
0.5
 62
   256
  6
BYLAYER
 49
-0.5
 62
   256
  6
BYLAYER
  0
ACDBPLACEHOLDER
  5
F
102
{ACAD_REACTORS
330
E
102
}
330
E
  0
SCALE
  5
48
102
{ACAD_REACTORS
330
47
102
}
330
47
100
AcDbScale
 70
     0
300
1:1
140
1.0
141
1.0
290
     1
  0
SCALE
  5
49
102
{ACAD_REACTORS
330
47
102
}
330
47
100
AcDbScale
 70
     0
300
1:2
140
1.0
141
2.0
290
     0
  0
SCALE
  5
4A
102
{ACAD_REACTORS
330
47
102
}
330
47
100
AcDbScale
 70
     0
300
1:4
140
1.0
141
4.0
290
     0
  0
SCALE
  5
4B
102
{ACAD_REACTORS
330
47
102
}
330
47
100
AcDbScale
 70
     0
300
1:5
140
1.0
141
5.0
290
     0
  0
SCALE
  5
4C
102
{ACAD_REACTORS
330
47
102
}
330
47
100
AcDbScale
 70
     0
300
1:8
140
1.0
141
8.0
290
     0
  0
SCALE
  5
4D
102
{ACAD_REACTORS
330
47
102
}
330
47
100
AcDbScale
 70
     0
300
1:10
140
1.0
141
10.0
290
     0
  0
SCALE
  5
4E
102
{ACAD_REACTORS
330
47
102
}
330
47
100
AcDbScale
 70
     0
300
1:16
140
1.0
141
16.0
290
     0
  0
SCALE
  5
4F
102
{ACAD_REACTORS
330
47
102
}
330
47
100
AcDbScale
 70
     0
300
1:20
140
1.0
141
20.0
290
     0
  0
SCALE
  5
50
102
{ACAD_REACTORS
330
47
102
}
330
47
100
AcDbScale
 70
     0
300
1:30
140
1.0
141
30.0
290
     0
  0
SCALE
  5
51
102
{ACAD_REACTORS
330
47
102
}
330
47
100
AcDbScale
 70
     0
300
1:40
140
1.0
141
40.0
290
     0
  0
SCALE
  5
52
102
{ACAD_REACTORS
330
47
102
}
330
47
100
AcDbScale
 70
     0
300
1:50
140
1.0
141
50.0
290
     0
  0
SCALE
  5
53
102
{ACAD_REACTORS
330
47
102
}
330
47
100
AcDbScale
 70
     0
300
1:100
140
1.0
141
100.0
290
     0
  0
SCALE
  5
54
102
{ACAD_REACTORS
330
47
102
}
330
47
100
AcDbScale
 70
     0
300
2:1
140
2.0
141
1.0
290
     0
  0
SCALE
  5
55
102
{ACAD_REACTORS
330
47
102
}
330
47
100
AcDbScale
 70
     0
300
4:1
140
4.0
141
1.0
290
     0
  0
SCALE
  5
56
102
{ACAD_REACTORS
330
47
102
}
330
47
100
AcDbScale
 70
     0
300
8:1
140
8.0
141
1.0
290
     0
  0
SCALE
  5
57
102
{ACAD_REACTORS
330
47
102
}
330
47
100
AcDbScale
 70
     0
300
10:1
140
10.0
141
1.0
290
     0
  0
SCALE
  5
58
102
{ACAD_REACTORS
330
47
102
}
330
47
100
AcDbScale
 70
     0
300
100:1
140
100.0
141
1.0
290
     0
  0
SCALE
  5
59
102
{ACAD_REACTORS
330
47
102
}
330
47
100
AcDbScale
 70
     0
300
1/128" = 1'-0"
140
0.0078125
141
12.0
290
     0
  0
SCALE
  5
5A
102
{ACAD_REACTORS
330
47
102
}
330
47
100
AcDbScale
 70
     0
300
1/64" = 1'-0"
140
0.015625
141
12.0
290
     0
  0
SCALE
  5
5B
102
{ACAD_REACTORS
330
47
102
}
330
47
100
AcDbScale
 70
     0
300
1/32" = 1'-0"
140
0.03125
141
12.0
290
     0
  0
SCALE
  5
5C
102
{ACAD_REACTORS
330
47
102
}
330
47
100
AcDbScale
 70
     0
300
1/16" = 1'-0"
140
0.0625
141
12.0
290
     0
  0
SCALE
  5
5D
102
{ACAD_REACTORS
330
47
102
}
330
47
100
AcDbScale
 70
     0
300
3/32" = 1'-0"
140
0.09375
141
12.0
290
     0
  0
SCALE
  5
5E
102
{ACAD_REACTORS
330
47
102
}
330
47
100
AcDbScale
 70
     0
300
1/8" = 1'-0"
140
0.125
141
12.0
290
     0
  0
SCALE
  5
5F
102
{ACAD_REACTORS
330
47
102
}
330
47
100
AcDbScale
 70
     0
300
3/16" = 1'-0"
140
0.1875
141
12.0
290
     0
  0
SCALE
  5
60
102
{ACAD_REACTORS
330
47
102
}
330
47
100
AcDbScale
 70
     0
300
1/4" = 1'-0"
140
0.25
141
12.0
290
     0
  0
SCALE
  5
61
102
{ACAD_REACTORS
330
47
102
}
330
47
100
AcDbScale
 70
     0
300
3/8" = 1'-0"
140
0.375
141
12.0
290
     0
  0
SCALE
  5
62
102
{ACAD_REACTORS
330
47
102
}
330
47
100
AcDbScale
 70
     0
300
1/2" = 1'-0"
140
0.5
141
12.0
290
     0
  0
SCALE
  5
63
102
{ACAD_REACTORS
330
47
102
}
330
47
100
AcDbScale
 70
     0
300
3/4" = 1'-0"
140
0.75
141
12.0
290
     0
  0
SCALE
  5
64
102
{ACAD_REACTORS
330
47
102
}
330
47
100
AcDbScale
 70
     0
300
1" = 1'-0"
140
1.0
141
12.0
290
     0
  0
SCALE
  5
65
102
{ACAD_REACTORS
330
47
102
}
330
47
100
AcDbScale
 70
     0
300
1-1/2" = 1'-0"
140
1.5
141
12.0
290
     0
  0
SCALE
  5
66
102
{ACAD_REACTORS
330
47
102
}
330
47
100
AcDbScale
 70
     0
300
3" = 1'-0"
140
3.0
141
12.0
290
     0
  0
SCALE
  5
67
102
{ACAD_REACTORS
330
47
102
}
330
47
100
AcDbScale
 70
     0
300
6" = 1'-0"
140
6.0
141
12.0
290
     0
  0
SCALE
  5
68
102
{ACAD_REACTORS
330
47
102
}
330
47
100
AcDbScale
 70
     0
300
1'-0" = 1'-0"
140
12.0
141
12.0
290
     0
  0
ENDSEC
  0
EOF
