  0
SECTION
  2
HEADER
  9
$ACADVER
  1
AC1015
  9
$ACADMAINTVER
 70
     6
  9
$DWGCODEPAGE
  3
ANSI_1252
  9
$INSBASE
 10
0.0
 20
0.0
 30
0.0
  9
$EXTMIN
 10
0.0
 20
0.0
 30
0.0
  9
$EXTMAX
 10
420.0
 20
297.0
 30
0.0
  9
$LIMMIN
 10
0.0
 20
0.0
  9
$LIMMAX
 10
420.0
 20
297.0
  9
$ORTHOMODE
 70
     0
  9
$REGENMODE
 70
     1
  9
$FILLMODE
 70
     1
  9
$QTEXTMODE
 70
     0
  9
$MIRRTEXT
 70
     1
  9
$LTSCALE
 40
1.0
  9
$ATTMODE
 70
     1
  9
$TEXTSIZE
 40
3.5
  9
$TRACEWID
 40
1.0
  9
$TEXTSTYLE
  7
Standard
  9
$CLAYER
  8
0
  9
$CELTYPE
  6
ByLayer
  9
$CECOLOR
 62
   256
  9
$CELTSCALE
 40
1.0
  9
$DISPSILH
 70
     0
  9
$DIMSCALE
 40
1.0
  9
$DIMASZ
 40
3.5
  9
$DIMEXO
 40
0.1
  9
$DIMDLI
 40
3.75
  9
$DIMRND
 40
0.0
  9
$DIMDLE
 40
0.0
  9
$DIMEXE
 40
1.0
  9
$DIMTP
 40
0.0
  9
$DIMTM
 40
0.0
  9
$DIMTXT
 40
3.5
  9
$DIMCEN
 40
2.5
  9
$DIMTSZ
 40
0.0
  9
$DIMTOL
 70
     0
  9
$DIMLIM
 70
     0
  9
$DIMTIH
 70
     1
  9
$DIMTOH
 70
     1
  9
$DIMSE1
 70
     0
  9
$DIMSE2
 70
     0
  9
$DIMTAD
 70
     1
  9
$DIMZIN
 70
     0
  9
$DIMBLK
  1

  9
$DIMASO
 70
     1
  9
$DIMSHO
 70
     1
  9
$DIMPOST
  1

  9
$DIMAPOST
  1

  9
$DIMALT
 70
     0
  9
$DIMALTD
 70
     3
  9
$DIMALTF
 40
0.0393700787
  9
$DIMLFAC
 40
1.0
  9
$DIMTOFL
 70
     1
  9
$DIMTVP
 40
0.0
  9
$DIMTIX
 70
     0
  9
$DIMSOXD
 70
     0
  9
$DIMSAH
 70
     0
  9
$DIMBLK1
  1

  9
$DIMBLK2
  1

  9
$DIMSTYLE
  2
ISO-25
  9
$DIMCLRD
 70
     0
  9
$DIMCLRE
 70
     0
  9
$DIMCLRT
 70
     0
  9
$DIMTFAC
 40
1.0
  9
$DIMGAP
 40
2.0
  9
$DIMJUST
 70
     0
  9
$DIMSD1
 70
     0
  9
$DIMSD2
 70
     0
  9
$DIMTOLJ
 70
     0
  9
$DIMTZIN
 70
     0
  9
$DIMALTZ
 70
     0
  9
$DIMALTTZ
 70
     0
  9
$DIMUPT
 70
     0
  9
$DIMDEC
 70
     2
  9
$DIMTDEC
 70
     3
  9
$DIMALTU
 70
     2
  9
$DIMALTTD
 70
     3
  9
$DIMTXSTY
  7
Standard
  9
$DIMAUNIT
 70
     0
  9
$DIMADEC
 70
     2
  9
$DIMALTRND
 40
0.0
  9
$DIMAZIN
 70
     0
  9
$DIMDSEP
 70
    44
  9
$DIMATFIT
 70
     3
  9
$DIMFRAC
 70
     0
  9
$DIMLDRBLK
  1

  9
$DIMLUNIT
 70
     2
  9
$DIMLWD
 70
    -2
  9
$DIMLWE
 70
    -2
  9
$DIMTMOVE
 70
     0
  9
$LUNITS
 70
     2
  9
$LUPREC
 70
     2
  9
$SKETCHINC
 40
1.0
  9
$FILLETRAD
 40
10.0
  9
$AUNITS
 70
     0
  9
$AUPREC
 70
     2
  9
$MENU
  1
.
  9
$ELEVATION
 40
0.0
  9
$PELEVATION
 40
0.0
  9
$THICKNESS
 40
0.0
  9
$LIMCHECK
 70
     0
  9
$CHAMFERA
 40
0.0
  9
$CHAMFERB
 40
0.0
  9
$CHAMFERC
 40
0.0
  9
$CHAMFERD
 40
0.0
  9
$SKPOLY
 70
     0
  9
$TDCREATE
 40
2459240.717022107
  9
$TDUCREATE
 40
2459240.67535544
  9
$TDUPDATE
 40
2459240.717030648
  9
$TDUUPDATE
 40
2459240.675363982
  9
$TDINDWG
 40
0.0000000116
  9
$TDUSRTIMER
 40
0.0000000116
  9
$USRTIMER
 70
     1
  9
$ANGBASE
 50
0.0
  9
$ANGDIR
 70
     0
  9
$PDMODE
 70
     0
  9
$PDSIZE
 40
-1.0
  9
$PLINEWID
 40
0.0
  9
$SPLFRAME
 70
     0
  9
$SPLINETYPE
 70
     6
  9
$SPLINESEGS
 70
     8
  9
$HANDSEED
  5
2B8
  9
$SURFTAB1
 70
     6
  9
$SURFTAB2
 70
     6
  9
$SURFTYPE
 70
     6
  9
$SURFU
 70
     6
  9
$SURFV
 70
     6
  9
$UCSBASE
  2

  9
$UCSNAME
  2

  9
$UCSORG
 10
0.0
 20
0.0
 30
0.0
  9
$UCSXDIR
 10
1.0
 20
0.0
 30
0.0
  9
$UCSYDIR
 10
0.0
 20
1.0
 30
0.0
  9
$UCSORTHOREF
  2

  9
$UCSORTHOVIEW
 70
     0
  9
$UCSORGTOP
 10
0.0
 20
0.0
 30
0.0
  9
$UCSORGBOTTOM
 10
0.0
 20
0.0
 30
0.0
  9
$UCSORGLEFT
 10
0.0
 20
0.0
 30
0.0
  9
$UCSORGRIGHT
 10
0.0
 20
0.0
 30
0.0
  9
$UCSORGFRONT
 10
0.0
 20
0.0
 30
0.0
  9
$UCSORGBACK
 10
0.0
 20
0.0
 30
0.0
  9
$PUCSBASE
  2

  9
$PUCSNAME
  2

  9
$PUCSORG
 10
0.0
 20
0.0
 30
0.0
  9
$PUCSXDIR
 10
1.0
 20
0.0
 30
0.0
  9
$PUCSYDIR
 10
0.0
 20
1.0
 30
0.0
  9
$PUCSORTHOREF
  2

  9
$PUCSORTHOVIEW
 70
     0
  9
$PUCSORGTOP
 10
0.0
 20
0.0
 30
0.0
  9
$PUCSORGBOTTOM
 10
0.0
 20
0.0
 30
0.0
  9
$PUCSORGLEFT
 10
0.0
 20
0.0
 30
0.0
  9
$PUCSORGRIGHT
 10
0.0
 20
0.0
 30
0.0
  9
$PUCSORGFRONT
 10
0.0
 20
0.0
 30
0.0
  9
$PUCSORGBACK
 10
0.0
 20
0.0
 30
0.0
  9
$USERI1
 70
     0
  9
$USERI2
 70
     0
  9
$USERI3
 70
     0
  9
$USERI4
 70
     0
  9
$USERI5
 70
     0
  9
$USERR1
 40
0.0
  9
$USERR2
 40
0.0
  9
$USERR3
 40
0.0
  9
$USERR4
 40
0.0
  9
$USERR5
 40
0.0
  9
$WORLDVIEW
 70
     1
  9
$SHADEDGE
 70
     3
  9
$SHADEDIF
 70
    70
  9
$TILEMODE
 70
     1
  9
$MAXACTVP
 70
    64
  9
$PINSBASE
 10
0.0
 20
0.0
 30
0.0
  9
$PLIMCHECK
 70
     0
  9
$PEXTMIN
 10
1.0000000000E+20
 20
1.0000000000E+20
 30
1.0000000000E+20
  9
$PEXTMAX
 10
-1.0000000000E+20
 20
-1.0000000000E+20
 30
-1.0000000000E+20
  9
$PLIMMIN
 10
0.0
 20
0.0
  9
$PLIMMAX
 10
420.0
 20
297.0
  9
$UNITMODE
 70
     0
  9
$VISRETAIN
 70
     1
  9
$PLINEGEN
 70
     0
  9
$PSLTSCALE
 70
     1
  9
$TREEDEPTH
 70
  3020
  9
$CMLSTYLE
  2
Standard
  9
$CMLJUST
 70
     0
  9
$CMLSCALE
 40
20.0
  9
$PROXYGRAPHICS
 70
     1
  9
$MEASUREMENT
 70
     1
  9
$CELWEIGHT
370
    -1
  9
$ENDCAPS
280
     0
  9
$JOINSTYLE
280
     0
  9
$LWDISPLAY
290
     1
  9
$INSUNITS
 70
     4
  9
$HYPERLINKBASE
  1

  9
$STYLESHEET
  1

  9
$XEDIT
290
     1
  9
$CEPSNTYPE
380
     0
  9
$PSTYLEMODE
290
     1
  9
$FINGERPRINTGUID
  2
{7ca2720a-272e-464c-9d99-8b26d30a2b16}
  9
$VERSIONGUID
  2
{FAEB1C32-E019-11D5-929B-00C0DF256EC4}
  9
$EXTNAMES
290
     1
  9
$PSVPSCALE
 40
0.0
  9
$OLESTARTUP
290
     0
  0
ENDSEC
  0
SECTION
  2
CLASSES
  0
CLASS
  1
ACDBDICTIONARYWDFLT
  2
AcDbDictionaryWithDefault
  3
ObjectDBX Classes
 90
        0
280
     0
281
     0
  0
CLASS
  1
VISUALSTYLE
  2
AcDbVisualStyle
  3
ObjectDBX Classes
 90
     4095
280
     0
281
     0
  0
CLASS
  1
MATERIAL
  2
AcDbMaterial
  3
ObjectDBX Classes
 90
     1153
280
     0
281
     0
  0
CLASS
  1
SCALE
  2
AcDbScale
  3
ObjectDBX Classes
 90
     1153
280
     0
281
     0
  0
CLASS
  1
TABLESTYLE
  2
AcDbTableStyle
  3
ObjectDBX Classes
 90
     4095
280
     0
281
     0
  0
CLASS
  1
MLEADERSTYLE
  2
AcDbMLeaderStyle
  3
ACDB_MLEADERSTYLE_CLASS
 90
     4095
280
     0
281
     0
  0
CLASS
  1
SUN
  2
AcDbSun
  3
SCENEOE
 90
     1153
280
     0
281
     0
  0
CLASS
  1
ACDBPLACEHOLDER
  2
AcDbPlaceHolder
  3
ObjectDBX Classes
 90
        0
280
     0
281
     0
  0
CLASS
  1
LAYOUT
  2
AcDbLayout
  3
ObjectDBX Classes
 90
        0
280
     0
281
     0
  0
ENDSEC
  0
SECTION
  2
TABLES
  0
TABLE
  2
VPORT
  5
8
330
0
100
AcDbSymbolTable
 70
     1
  0
VPORT
  5
29
330
8
100
AcDbSymbolTableRecord
100
AcDbViewportTableRecord
  2
*Active
 70
     0
 10
0.0
 20
0.0
 11
1.0
 21
1.0
 12
210.0
 22
148.5
 13
0.0
 23
0.0
 14
10.0
 24
10.0
 15
10.0
 25
10.0
 16
0.0
 26
0.0
 36
1.0
 17
0.0
 27
0.0
 37
0.0
 40
297.0
 41
1.4141414141
 42
50.0
 43
0.0
 44
0.0
 50
0.0
 51
0.0
 71
     0
 72
  2000
 73
     1
 74
     3
 75
     0
 76
     0
 77
     0
 78
     0
281
     0
 65
     1
110
0.0
120
0.0
130
0.0
111
1.0
121
0.0
131
0.0
112
0.0
122
1.0
132
0.0
 79
     0
146
0.0
  0
ENDTAB
  0
TABLE
  2
LTYPE
  5
5
330
0
100
AcDbSymbolTable
 70
     6
  0
LTYPE
  5
14
330
5
100
AcDbSymbolTableRecord
100
AcDbLinetypeTableRecord
  2
ByBlock
 70
     0
  3

 72
    65
 73
     0
 40
0.0
  0
LTYPE
  5
15
330
5
100
AcDbSymbolTableRecord
100
AcDbLinetypeTableRecord
  2
ByLayer
 70
     0
  3

 72
    65
 73
     0
 40
0.0
  0
LTYPE
  5
16
330
5
100
AcDbSymbolTableRecord
100
AcDbLinetypeTableRecord
  2
Continuous
 70
     0
  3
Solid line
 72
    65
 73
     0
 40
0.0
  0
LTYPE
  5
6E
330
5
100
AcDbSymbolTableRecord
100
AcDbLinetypeTableRecord
  2
HIDDEN
 70
     0
  3
Hidden __ __ __ __ __ __ __ __ __ __ __ __ __ __
 72
    65
 73
     2
 40
1.905
 49
1.27
 74
     0
 49
-0.635
 74
     0
  0
LTYPE
  5
6F
330
5
100
AcDbSymbolTableRecord
100
AcDbLinetypeTableRecord
  2
PHANTOM
 70
     0
  3
Phantom ______  __  __  ______  __  __  ______
 72
    65
 73
     6
 40
12.7
 49
6.35
 74
     0
 49
-1.27
 74
     0
 49
1.27
 74
     0
 49
-1.27
 74
     0
 49
1.27
 74
     0
 49
-1.27
 74
     0
  0
LTYPE
  5
70
330
5
100
AcDbSymbolTableRecord
100
AcDbLinetypeTableRecord
  2
CENTER
 70
     0
  3
Center ____ _ ____ _ ____ _ ____ _ ____ _ ____
 72
    65
 73
     4
 40
10.16
 49
6.35
 74
     0
 49
-1.27
 74
     0
 49
1.27
 74
     0
 49
-1.27
 74
     0
  0
LTYPE
  5
71
330
5
100
AcDbSymbolTableRecord
100
AcDbLinetypeTableRecord
  2
CENTERX2
 70
     0
  3
Center (2x) ________  __  ________  __  _____
 72
    65
 73
     4
 40
20.32
 49
12.7
 74
     0
 49
-2.54
 74
     0
 49
2.54
 74
     0
 49
-2.54
 74
     0
  0
LTYPE
  5
72
330
5
100
AcDbSymbolTableRecord
100
AcDbLinetypeTableRecord
  2
DOT2
 70
     0
  3
Dot (.5x) ........................................
 72
    65
 73
     2
 40
0.635
 49
0.0
 74
     0
 49
-0.635
 74
     0
  0
ENDTAB
  0
TABLE
  2
LAYER
  5
2
330
0
100
AcDbSymbolTable
 70
     9
  0
LAYER
  5
10
330
2
100
AcDbSymbolTableRecord
100
AcDbLayerTableRecord
  2
0
 70
     0
 62
     7
  6
Continuous
370
    -3
390
F
  0
LAYER
  5
73
330
2
100
AcDbSymbolTableRecord
100
AcDbLayerTableRecord
  2
VORLAGE_TEXT
 70
     0
 62
     7
  6
Continuous
370
    -3
390
F
  0
LAYER
  5
74
330
2
100
AcDbSymbolTableRecord
100
AcDbLayerTableRecord
  2
VORLAGE_BEMASSUNG
 70
     0
 62
    -5
  6
Continuous
290
     0
370
    -3
390
F
  0
LAYER
  5
75
330
2
100
AcDbSymbolTableRecord
100
AcDbLayerTableRecord
  2
TEXT
 70
     0
 62
     7
  6
Continuous
370
    -3
390
F
  0
LAYER
  5
76
330
2
100
AcDbSymbolTableRecord
100
AcDbLayerTableRecord
  2
LINIEN-DICK
 70
     0
 62
     7
  6
Continuous
370
    35
390
F
  0
LAYER
  5
77
330
2
100
AcDbSymbolTableRecord
100
AcDbLayerTableRecord
  2
LINIEN-NORMAL
 70
     0
 62
     7
  6
Continuous
370
    25
390
F
  0
LAYER
  5
78
330
2
100
AcDbSymbolTableRecord
100
AcDbLayerTableRecord
  2
LINIEN-DÜNN
 70
     0
 62
     7
  6
Continuous
370
    -3
390
F
  0
LAYER
  5
79
330
2
100
AcDbSymbolTableRecord
100
AcDbLayerTableRecord
  2
TEXT-DEUTSCH
 70
     0
 62
     7
  6
Continuous
370
    -3
390
F
  0
LAYER
  5
7A
330
2
100
AcDbSymbolTableRecord
100
AcDbLayerTableRecord
  2
TEXT-ENGLISCH
 70
     0
 62
    -7
  6
Continuous
290
     0
370
    -3
390
F
  0
ENDTAB
  0
TABLE
  2
STYLE
  5
3
330
0
100
AcDbSymbolTable
 70
     6
  0
STYLE
  5
11
330
3
100
AcDbSymbolTableRecord
100
AcDbTextStyleTableRecord
  2
Standard
 70
     0
 40
0.0
 41
1.0
 50
0.0
 71
     0
 42
3.5
  3
txt
  4

  0
STYLE
  5
8F
330
3
100
AcDbSymbolTableRecord
100
AcDbTextStyleTableRecord
  2
SLDTEXTSTYLE0
 70
     0
 40
0.0
 41
0.605
 50
0.0
 71
     0
 42
3.5
  3
TXT
  4

  0
STYLE
  5
9F
330
3
100
AcDbSymbolTableRecord
100
AcDbTextStyleTableRecord
  2
SLDTEXTSTYLE1
 70
     0
 40
0.0
 41
0.57
 50
0.0
 71
     0
 42
3.5
  3
TXT
  4

  0
STYLE
  5
D0
330
3
100
AcDbSymbolTableRecord
100
AcDbTextStyleTableRecord
  2
SLDTEXTSTYLE2
 70
     0
 40
0.0
 41
0.563
 50
0.0
 71
     0
 42
3.5
  3
TXT
  4

  0
STYLE
  5
D7
330
3
100
AcDbSymbolTableRecord
100
AcDbTextStyleTableRecord
  2
SLDTEXTSTYLE3
 70
     0
 40
0.0
 41
0.5525
 50
0.0
 71
     0
 42
3.5
  3
TXT
  4

  0
STYLE
  5
EA
330
3
100
AcDbSymbolTableRecord
100
AcDbTextStyleTableRecord
  2
SLDTEXTSTYLE4
 70
     0
 40
0.0
 41
0.575
 50
0.0
 71
     0
 42
3.5
  3
TXT
  4

  0
ENDTAB
  0
TABLE
  2
VIEW
  5
6
330
0
100
AcDbSymbolTable
 70
     0
  0
ENDTAB
  0
TABLE
  2
UCS
  5
7
330
0
100
AcDbSymbolTable
 70
     0
  0
ENDTAB
  0
TABLE
  2
APPID
  5
9
330
0
100
AcDbSymbolTable
 70
     1
  0
APPID
  5
12
330
9
100
AcDbSymbolTableRecord
100
AcDbRegAppTableRecord
  2
ACAD
 70
     0
  0
ENDTAB
  0
TABLE
  2
DIMSTYLE
  5
A
330
0
100
AcDbSymbolTable
 70
     4
100
AcDbDimStyleTable
  0
DIMSTYLE
105
27
330
A
100
AcDbSymbolTableRecord
100
AcDbDimStyleTableRecord
  2
ISO-25
 70
     0
 41
2.5
 42
0.625
 43
3.75
 44
1.25
 73
     0
 74
     0
 77
     1
 78
     8
140
2.5
141
2.5
143
0.0393700787
147
0.625
171
     3
172
     1
178
     0
271
     2
272
     2
274
     3
278
    44
283
     0
284
     8
340
11
  0
DIMSTYLE
105
289
102
{ACAD_REACTORS
330
288
330
2AD
102
}
330
A
100
AcDbSymbolTableRecord
100
AcDbDimStyleTableRecord
  2
SLDDIMSTYLE0
 70
     0
 41
3.5
 44
0.0
 45
0.000000001
 73
     0
 74
     0
 77
     1
 78
    12
 79
     3
140
3.5
147
0.875
173
     1
178
     0
271
     2
272
     3
276
     2
284
    12
340
8F
  0
DIMSTYLE
105
295
102
{ACAD_REACTORS
330
294
102
}
330
A
100
AcDbSymbolTableRecord
100
AcDbDimStyleTableRecord
  2
SLDDIMSTYLE1
 70
     0
 41
3.5
 44
0.0
 45
0.000000001
 73
     0
 74
     0
 77
     1
 78
    12
 79
     3
140
3.5
147
0.875
173
     1
178
     0
271
     0
272
     3
276
     2
284
    12
340
8F
  0
DIMSTYLE
105
2A1
102
{ACAD_REACTORS
330
2A0
102
}
330
A
100
AcDbSymbolTableRecord
100
AcDbDimStyleTableRecord
  2
SLDDIMSTYLE2
 70
     0
 41
3.5
 44
0.0
 45
0.000000001
 73
     0
 74
     0
 77
     1
 78
    12
 79
     3
140
3.5
147
0.875
172
     1
173
     1
178
     0
271
     2
272
     3
276
     2
284
    12
289
     0
340
8F
  0
ENDTAB
  0
TABLE
  2
BLOCK_RECORD
  5
1
330
0
100
AcDbSymbolTable
 70
    30
  0
BLOCK_RECORD
  5
1F
330
1
100
AcDbSymbolTableRecord
100
AcDbBlockTableRecord
  2
*Model_Space
340
22
  0
BLOCK_RECORD
  5
1B
330
1
100
AcDbSymbolTableRecord
100
AcDbBlockTableRecord
  2
*Paper_Space
340
1E
  0
BLOCK_RECORD
  5
23
330
1
100
AcDbSymbolTableRecord
100
AcDbBlockTableRecord
  2
*Paper_Space0
340
26
  0
BLOCK_RECORD
  5
7B
330
1
100
AcDbSymbolTableRecord
100
AcDbBlockTableRecord
  2
Allg-Toleranz-mittel
340
0
102
{BLKREFS
331
1C8
102
}
  0
BLOCK_RECORD
  5
8C
330
1
100
AcDbSymbolTableRecord
100
AcDbBlockTableRecord
  2
SW_NOTE_0
340
0
102
{BLKREFS
331
91
102
}
  0
BLOCK_RECORD
  5
92
330
1
100
AcDbSymbolTableRecord
100
AcDbBlockTableRecord
  2
SW_NOTE_0_1
340
0
102
{BLKREFS
331
96
102
}
  0
BLOCK_RECORD
  5
97
330
1
100
AcDbSymbolTableRecord
100
AcDbBlockTableRecord
  2
SW_NOTE_0_2
340
0
102
{BLKREFS
331
9B
102
}
  0
BLOCK_RECORD
  5
9C
330
1
100
AcDbSymbolTableRecord
100
AcDbBlockTableRecord
  2
SW_NOTE_0_3
340
0
102
{BLKREFS
331
A2
102
}
  0
BLOCK_RECORD
  5
A3
330
1
100
AcDbSymbolTableRecord
100
AcDbBlockTableRecord
  2
SW_NOTE_0_4
340
0
102
{BLKREFS
331
A7
102
}
  0
BLOCK_RECORD
  5
A8
330
1
100
AcDbSymbolTableRecord
100
AcDbBlockTableRecord
  2
SW_NOTE_0_5
340
0
102
{BLKREFS
331
AC
102
}
  0
BLOCK_RECORD
  5
AD
330
1
100
AcDbSymbolTableRecord
100
AcDbBlockTableRecord
  2
SW_NOTE_0_6
340
0
102
{BLKREFS
331
B1
102
}
  0
BLOCK_RECORD
  5
B2
330
1
100
AcDbSymbolTableRecord
100
AcDbBlockTableRecord
  2
SW_NOTE_0_7
340
0
102
{BLKREFS
331
B6
102
}
  0
BLOCK_RECORD
  5
B7
330
1
100
AcDbSymbolTableRecord
100
AcDbBlockTableRecord
  2
SW_NOTE_0_8
340
0
102
{BLKREFS
331
BB
102
}
  0
BLOCK_RECORD
  5
BC
330
1
100
AcDbSymbolTableRecord
100
AcDbBlockTableRecord
  2
SW_NOTE_0_9
340
0
102
{BLKREFS
331
C0
102
}
  0
BLOCK_RECORD
  5
C1
330
1
100
AcDbSymbolTableRecord
100
AcDbBlockTableRecord
  2
SW_NOTE_0_10
340
0
102
{BLKREFS
331
C6
102
}
  0
BLOCK_RECORD
  5
C7
330
1
100
AcDbSymbolTableRecord
100
AcDbBlockTableRecord
  2
SW_NOTE_0_11
340
0
102
{BLKREFS
331
CC
102
}
  0
BLOCK_RECORD
  5
CD
330
1
100
AcDbSymbolTableRecord
100
AcDbBlockTableRecord
  2
SW_NOTE_0_12
340
0
102
{BLKREFS
331
D3
102
}
  0
BLOCK_RECORD
  5
D4
330
1
100
AcDbSymbolTableRecord
100
AcDbBlockTableRecord
  2
SW_NOTE_0_13
340
0
102
{BLKREFS
331
DA
102
}
  0
BLOCK_RECORD
  5
DB
330
1
100
AcDbSymbolTableRecord
100
AcDbBlockTableRecord
  2
SW_NOTE_0_14
340
0
102
{BLKREFS
331
E0
102
}
  0
BLOCK_RECORD
  5
E1
330
1
100
AcDbSymbolTableRecord
100
AcDbBlockTableRecord
  2
SW_NOTE_0_15
340
0
102
{BLKREFS
331
E6
102
}
  0
BLOCK_RECORD
  5
E7
330
1
100
AcDbSymbolTableRecord
100
AcDbBlockTableRecord
  2
SW_NOTE_0_16
340
0
102
{BLKREFS
331
ED
102
}
  0
BLOCK_RECORD
  5
EE
330
1
100
AcDbSymbolTableRecord
100
AcDbBlockTableRecord
  2
SW_NOTE_0_17
340
0
102
{BLKREFS
331
F2
102
}
  0
BLOCK_RECORD
  5
F3
330
1
100
AcDbSymbolTableRecord
100
AcDbBlockTableRecord
  2
ACO-Logo
340
0
102
{BLKREFS
331
1C9
102
}
  0
BLOCK_RECORD
  5
166
330
1
100
AcDbSymbolTableRecord
100
AcDbBlockTableRecord
  2
SW_NOTE_0_18
340
0
102
{BLKREFS
331
16A
102
}
  0
BLOCK_RECORD
  5
16B
330
1
100
AcDbSymbolTableRecord
100
AcDbBlockTableRecord
  2
SW_NOTE_0_19
340
0
102
{BLKREFS
331
16F
102
}
  0
BLOCK_RECORD
  5
170
330
1
100
AcDbSymbolTableRecord
100
AcDbBlockTableRecord
  2
SW_NOTE_0_20
340
0
102
{BLKREFS
331
177
102
}
  0
BLOCK_RECORD
  5
1F0
330
1
100
AcDbSymbolTableRecord
100
AcDbBlockTableRecord
  2
SW_NOTE_0_21
340
0
102
{BLKREFS
331
1F8
102
}
  0
BLOCK_RECORD
  5
21A
330
1
100
AcDbSymbolTableRecord
100
AcDbBlockTableRecord
  2
SW_CENTERMARKSYMBOL_0
340
0
102
{BLKREFS
331
225
102
}
  0
BLOCK_RECORD
  5
28A
330
1
100
AcDbSymbolTableRecord
100
AcDbBlockTableRecord
  2
_D
340
0
  0
BLOCK_RECORD
  5
296
330
1
100
AcDbSymbolTableRecord
100
AcDbBlockTableRecord
  2
_D_1
340
0
  0
BLOCK_RECORD
  5
2A2
330
1
100
AcDbSymbolTableRecord
100
AcDbBlockTableRecord
  2
_D_2
340
0
  0
BLOCK_RECORD
  5
2AE
330
1
100
AcDbSymbolTableRecord
100
AcDbBlockTableRecord
  2
_D_3
340
0
  0
ENDTAB
  0
ENDSEC
  0
SECTION
  2
BLOCKS
  0
BLOCK
  5
20
330
1F
100
AcDbEntity
  8
0
100
AcDbBlockBegin
  2
*Model_Space
 70
     0
 10
0.0
 20
0.0
 30
0.0
  3
*Model_Space
  1

  0
ENDBLK
  5
21
330
1F
100
AcDbEntity
  8
0
100
AcDbBlockEnd
  0
BLOCK
  5
1C
330
1B
100
AcDbEntity
 67
     1
  8
0
100
AcDbBlockBegin
  2
*Paper_Space
 70
     0
 10
0.0
 20
0.0
 30
0.0
  3
*Paper_Space
  1

  0
ENDBLK
  5
1D
330
1B
100
AcDbEntity
 67
     1
  8
0
100
AcDbBlockEnd
  0
BLOCK
  5
24
330
23
100
AcDbEntity
  8
0
100
AcDbBlockBegin
  2
*Paper_Space0
 70
     0
 10
0.0
 20
0.0
 30
0.0
  3
*Paper_Space0
  1

  0
ENDBLK
  5
25
330
23
100
AcDbEntity
  8
0
100
AcDbBlockEnd
  0
BLOCK
  5
7C
330
7B
100
AcDbEntity
  8
0
100
AcDbBlockBegin
  2
Allg-Toleranz-mittel
 70
     0
 10
0.0
 20
0.0
 30
0.0
  3
Allg-Toleranz-mittel
  1

  0
LINE
  5
7E
330
7B
100
AcDbEntity
  8
LINIEN-NORMAL
 62
     7
100
AcDbLine
 10
0.0
 20
18.0
 30
0.0
 11
0.0
 21
0.0
 31
0.0
  0
LINE
  5
7F
330
7B
100
AcDbEntity
  8
LINIEN-NORMAL
 62
     7
100
AcDbLine
 10
0.0
 20
18.0
 30
0.0
 11
70.0
 21
18.0
 31
0.0
  0
LINE
  5
80
330
7B
100
AcDbEntity
  8
LINIEN-DÜNN
 62
     7
100
AcDbLine
 10
0.0
 20
14.0
 30
0.0
 11
70.0
 21
14.0
 31
0.0
  0
LINE
  5
81
330
7B
100
AcDbEntity
  8
LINIEN-DÜNN
 62
     7
100
AcDbLine
 10
12.0
 20
14.0
 30
0.0
 11
12.0
 21
0.0
 31
0.0
  0
LINE
  5
82
330
7B
100
AcDbEntity
  8
LINIEN-DÜNN
 62
     7
100
AcDbLine
 10
20.0
 20
10.0
 30
0.0
 11
20.0
 21
0.0
 31
0.0
  0
LINE
  5
83
330
7B
100
AcDbEntity
  8
LINIEN-DÜNN
 62
     7
100
AcDbLine
 10
28.0
 20
10.0
 30
0.0
 11
28.0
 21
0.0
 31
0.0
  0
LINE
  5
84
330
7B
100
AcDbEntity
  8
LINIEN-DÜNN
 62
     7
100
AcDbLine
 10
36.0
 20
10.0
 30
0.0
 11
36.0
 21
0.0
 31
0.0
  0
LINE
  5
85
330
7B
100
AcDbEntity
  8
LINIEN-DÜNN
 62
     7
100
AcDbLine
 10
44.0
 20
10.0
 30
0.0
 11
44.0
 21
0.0
 31
0.0
  0
LINE
  5
86
330
7B
100
AcDbEntity
  8
LINIEN-DÜNN
 62
     7
100
AcDbLine
 10
52.0
 20
10.0
 30
0.0
 11
52.0
 21
0.0
 31
0.0
  0
LINE
  5
87
330
7B
100
AcDbEntity
  8
LINIEN-DÜNN
 62
     7
100
AcDbLine
 10
70.0
 20
10.0
 30
0.0
 11
12.0
 21
10.0
 31
0.0
  0
LINE
  5
88
330
7B
100
AcDbEntity
  8
LINIEN-DÜNN
 62
     7
100
AcDbLine
 10
70.0
 20
4.0
 30
0.0
 11
0.0
 21
4.0
 31
0.0
  0
LINE
  5
89
330
7B
100
AcDbEntity
  8
LINIEN-NORMAL
 62
     7
100
AcDbLine
 10
70.0
 20
18.0
 30
0.0
 11
70.0
 21
0.0
 31
0.0
  0
LINE
  5
8A
330
7B
100
AcDbEntity
  8
LINIEN-NORMAL
 62
     7
100
AcDbLine
 10
70.0
 20
0.0
 30
0.0
 11
0.0
 21
0.0
 31
0.0
  0
LINE
  5
8B
330
7B
100
AcDbEntity
  8
LINIEN-DÜNN
100
AcDbLine
 10
61.0
 20
10.0
 30
0.0
 11
61.0
 21
0.0
 31
0.0
  0
INSERT
  5
91
330
7B
100
AcDbEntity
  8
VORLAGE_TEXT
 62
     7
100
AcDbBlockReference
  2
SW_NOTE_0
 10
1.3715701559
 20
14.7823959776
 30
0.0
  0
INSERT
  5
96
330
7B
100
AcDbEntity
  8
VORLAGE_TEXT
 62
     7
100
AcDbBlockReference
  2
SW_NOTE_0_1
 10
19.4858329865
 20
10.8011997857
 30
0.0
  0
INSERT
  5
9B
330
7B
100
AcDbEntity
  8
VORLAGE_TEXT
 62
     7
100
AcDbBlockReference
  2
SW_NOTE_0_2
 10
0.7059049832
 20
0.7957779732
 30
0.0
  0
INSERT
  5
A2
330
7B
100
AcDbEntity
  8
VORLAGE_TEXT
 62
     7
100
AcDbBlockReference
  2
SW_NOTE_0_3
 10
44.6572377212
 20
6.9417037808
 30
0.0
  0
INSERT
  5
A7
330
7B
100
AcDbEntity
  8
VORLAGE_TEXT
 62
     7
100
AcDbBlockReference
  2
SW_NOTE_0_4
 10
21.3963023843
 20
0.8030156928
 30
0.0
  0
INSERT
  5
AC
330
7B
100
AcDbEntity
  8
VORLAGE_TEXT
 62
     7
100
AcDbBlockReference
  2
SW_NOTE_0_5
 10
29.3441244219
 20
0.8024484104
 30
0.0
  0
INSERT
  5
B1
330
7B
100
AcDbEntity
  8
VORLAGE_TEXT
 62
     7
100
AcDbBlockReference
  2
SW_NOTE_0_6
 10
37.3487166127
 20
0.7888202699
 30
0.0
  0
INSERT
  5
B6
330
7B
100
AcDbEntity
  8
VORLAGE_TEXT
 62
     7
100
AcDbBlockReference
  2
SW_NOTE_0_7
 10
45.3470367789
 20
0.8005698793
 30
0.0
  0
INSERT
  5
BB
330
7B
100
AcDbEntity
  8
VORLAGE_TEXT
 62
     7
100
AcDbBlockReference
  2
SW_NOTE_0_8
 10
53.8527888204
 20
0.8016543168
 30
0.0
  0
INSERT
  5
C0
330
7B
100
AcDbEntity
  8
VORLAGE_TEXT
 62
     7
100
AcDbBlockReference
  2
SW_NOTE_0_9
 10
13.3728379186
 20
0.8021647692
 30
0.0
  0
INSERT
  5
C6
330
7B
100
AcDbEntity
  8
VORLAGE_TEXT
 62
     7
100
AcDbBlockReference
  2
SW_NOTE_0_10
 10
0.7480385575
 20
8.9918758938
 30
0.0
  0
INSERT
  5
CC
330
7B
100
AcDbEntity
  8
VORLAGE_TEXT
 62
     7
100
AcDbBlockReference
  2
SW_NOTE_0_11
 10
53.6385910634
 20
6.9252111133
 30
0.0
  0
INSERT
  5
D3
330
7B
100
AcDbEntity
  8
VORLAGE_TEXT
 62
     7
100
AcDbBlockReference
  2
SW_NOTE_0_12
 10
37.834189587
 20
6.9615036443
 30
0.0
  0
INSERT
  5
DA
330
7B
100
AcDbEntity
  8
VORLAGE_TEXT
 62
     7
100
AcDbBlockReference
  2
SW_NOTE_0_13
 10
21.9401680118
 20
6.9455377904
 30
0.0
  0
INSERT
  5
E0
330
7B
100
AcDbEntity
  8
VORLAGE_TEXT
 62
     7
100
AcDbBlockReference
  2
SW_NOTE_0_14
 10
14.6500264887
 20
6.9584413
 30
0.0
  0
INSERT
  5
E6
330
7B
100
AcDbEntity
  8
VORLAGE_TEXT
 62
     7
100
AcDbBlockReference
  2
SW_NOTE_0_15
 10
30.5247714712
 20
6.9591233511
 30
0.0
  0
INSERT
  5
ED
330
7B
100
AcDbEntity
  8
VORLAGE_TEXT
 62
     7
100
AcDbBlockReference
  2
SW_NOTE_0_16
 10
61.480287246
 20
6.9546837425
 30
0.0
  0
INSERT
  5
F2
330
7B
100
AcDbEntity
  8
VORLAGE_TEXT
 62
     7
100
AcDbBlockReference
  2
SW_NOTE_0_17
 10
62.8737574935
 20
0.7955033114
 30
0.0
  0
ENDBLK
  5
7D
330
7B
100
AcDbEntity
  8
0
100
AcDbBlockEnd
  0
BLOCK
  5
8D
330
8C
100
AcDbEntity
  8
0
100
AcDbBlockBegin
  2
SW_NOTE_0
 70
     0
 10
0.0
 20
0.0
 30
0.0
  3
SW_NOTE_0
  1

  0
MTEXT
  5
90
330
8C
100
AcDbEntity
  8
VORLAGE_TEXT
 62
     0
100
AcDbMText
 10
0.0
 20
2.3203219316
 30
0.0
 40
1.8
 41
0.0
 71
     1
 72
     1
  1
Allgemeintoleranzen für Längenmasse            DIN  ISO 2768-1
  7
SLDTEXTSTYLE0
 73
     1
 44
1.0
  0
ENDBLK
  5
8E
330
8C
100
AcDbEntity
  8
0
100
AcDbBlockEnd
  0
BLOCK
  5
93
330
92
100
AcDbEntity
  8
0
100
AcDbBlockBegin
  2
SW_NOTE_0_1
 70
     0
 10
0.0
 20
0.0
 30
0.0
  3
SW_NOTE_0_1
  1

  0
MTEXT
  5
95
330
92
100
AcDbEntity
  8
VORLAGE_TEXT
 62
     0
100
AcDbMText
 10
0.675
 20
2.3203219316
 30
0.0
 40
1.8
 41
0.0
 71
     1
 72
     1
  1
Abmasse in mm für Nennmassbereiche
  7
SLDTEXTSTYLE0
 73
     1
 44
1.0
  0
ENDBLK
  5
94
330
92
100
AcDbEntity
  8
0
100
AcDbBlockEnd
  0
BLOCK
  5
98
330
97
100
AcDbEntity
  8
0
100
AcDbBlockBegin
  2
SW_NOTE_0_2
 70
     0
 10
0.0
 20
0.0
 30
0.0
  3
SW_NOTE_0_2
  1

  0
MTEXT
  5
9A
330
97
100
AcDbEntity
  8
VORLAGE_TEXT
 62
     0
100
AcDbMText
 10
0.0
 20
2.3203219316
 30
0.0
 40
1.8
 41
0.0
 71
     1
 72
     1
  1
m  (mittel)
  7
SLDTEXTSTYLE0
 73
     1
 44
1.0
  0
ENDBLK
  5
99
330
97
100
AcDbEntity
  8
0
100
AcDbBlockEnd
  0
BLOCK
  5
9D
330
9C
100
AcDbEntity
  8
0
100
AcDbBlockBegin
  2
SW_NOTE_0_3
 70
     0
 10
0.0
 20
0.0
 30
0.0
  3
SW_NOTE_0_3
  1

  0
MTEXT
  5
A0
330
9C
100
AcDbEntity
  8
VORLAGE_TEXT
 62
     0
100
AcDbMText
 10
6.80625
 20
2.3203219316
 30
0.0
 40
1.8
 41
0.0
 71
     3
 72
     1
  1
>  120
  7
SLDTEXTSTYLE1
 73
     1
 44
1.0
  0
MTEXT
  5
A1
330
9C
100
AcDbEntity
  8
VORLAGE_TEXT
 62
     0
100
AcDbMText
 10
6.8815628178
 20
0.0003219611
 30
0.0
 40
1.8
 41
0.0
 71
     3
 72
     1
  1
... 400
  7
SLDTEXTSTYLE0
 73
     1
 44
1.0
  0
ENDBLK
  5
9E
330
9C
100
AcDbEntity
  8
0
100
AcDbBlockEnd
  0
BLOCK
  5
A4
330
A3
100
AcDbEntity
  8
0
100
AcDbBlockBegin
  2
SW_NOTE_0_4
 70
     0
 10
0.0
 20
0.0
 30
0.0
  3
SW_NOTE_0_4
  1

  0
MTEXT
  5
A6
330
A3
100
AcDbEntity
  8
VORLAGE_TEXT
 62
     0
100
AcDbMText
 10
0.0
 20
2.3203219316
 30
0.0
 40
1.8
 41
0.0
 71
     1
 72
     1
  1
± 0.1
  7
SLDTEXTSTYLE0
 73
     1
 44
1.0
  0
ENDBLK
  5
A5
330
A3
100
AcDbEntity
  8
0
100
AcDbBlockEnd
  0
BLOCK
  5
A9
330
A8
100
AcDbEntity
  8
0
100
AcDbBlockBegin
  2
SW_NOTE_0_5
 70
     0
 10
0.0
 20
0.0
 30
0.0
  3
SW_NOTE_0_5
  1

  0
MTEXT
  5
AB
330
A8
100
AcDbEntity
  8
VORLAGE_TEXT
 62
     0
100
AcDbMText
 10
0.0
 20
2.3203219316
 30
0.0
 40
1.8
 41
0.0
 71
     1
 72
     1
  1
± 0.2
  7
SLDTEXTSTYLE0
 73
     1
 44
1.0
  0
ENDBLK
  5
AA
330
A8
100
AcDbEntity
  8
0
100
AcDbBlockEnd
  0
BLOCK
  5
AE
330
AD
100
AcDbEntity
  8
0
100
AcDbBlockBegin
  2
SW_NOTE_0_6
 70
     0
 10
0.0
 20
0.0
 30
0.0
  3
SW_NOTE_0_6
  1

  0
MTEXT
  5
B0
330
AD
100
AcDbEntity
  8
VORLAGE_TEXT
 62
     0
100
AcDbMText
 10
0.0
 20
2.3203219316
 30
0.0
 40
1.8
 41
0.0
 71
     1
 72
     1
  1
± 0.3
  7
SLDTEXTSTYLE0
 73
     1
 44
1.0
  0
ENDBLK
  5
AF
330
AD
100
AcDbEntity
  8
0
100
AcDbBlockEnd
  0
BLOCK
  5
B3
330
B2
100
AcDbEntity
  8
0
100
AcDbBlockBegin
  2
SW_NOTE_0_7
 70
     0
 10
0.0
 20
0.0
 30
0.0
  3
SW_NOTE_0_7
  1

  0
MTEXT
  5
B5
330
B2
100
AcDbEntity
  8
VORLAGE_TEXT
 62
     0
100
AcDbMText
 10
0.0
 20
2.3203219316
 30
0.0
 40
1.8
 41
0.0
 71
     1
 72
     1
  1
± 0.5
  7
SLDTEXTSTYLE0
 73
     1
 44
1.0
  0
ENDBLK
  5
B4
330
B2
100
AcDbEntity
  8
0
100
AcDbBlockEnd
  0
BLOCK
  5
B8
330
B7
100
AcDbEntity
  8
0
100
AcDbBlockBegin
  2
SW_NOTE_0_8
 70
     0
 10
0.0
 20
0.0
 30
0.0
  3
SW_NOTE_0_8
  1

  0
MTEXT
  5
BA
330
B7
100
AcDbEntity
  8
VORLAGE_TEXT
 62
     0
100
AcDbMText
 10
0.0
 20
2.3203219316
 30
0.0
 40
1.8
 41
0.0
 71
     1
 72
     1
  1
± 0.8
  7
SLDTEXTSTYLE0
 73
     1
 44
1.0
  0
ENDBLK
  5
B9
330
B7
100
AcDbEntity
  8
0
100
AcDbBlockEnd
  0
BLOCK
  5
BD
330
BC
100
AcDbEntity
  8
0
100
AcDbBlockBegin
  2
SW_NOTE_0_9
 70
     0
 10
0.0
 20
0.0
 30
0.0
  3
SW_NOTE_0_9
  1

  0
MTEXT
  5
BF
330
BC
100
AcDbEntity
  8
VORLAGE_TEXT
 62
     0
100
AcDbMText
 10
0.0
 20
2.3203219316
 30
0.0
 40
1.8
 41
0.0
 71
     1
 72
     1
  1
± 0.1
  7
SLDTEXTSTYLE0
 73
     1
 44
1.0
  0
ENDBLK
  5
BE
330
BC
100
AcDbEntity
  8
0
100
AcDbBlockEnd
  0
BLOCK
  5
C2
330
C1
100
AcDbEntity
  8
0
100
AcDbBlockBegin
  2
SW_NOTE_0_10
 70
     0
 10
0.0
 20
0.0
 30
0.0
  3
SW_NOTE_0_10
  1

  0
MTEXT
  5
C4
330
C1
100
AcDbEntity
  8
VORLAGE_TEXT
 62
     0
100
AcDbMText
 10
0.0
 20
2.3203219316
 30
0.0
 40
1.8
 41
0.0
 71
     1
 72
     1
  1
Genauig -
  7
SLDTEXTSTYLE0
 73
     1
 44
1.0
  0
MTEXT
  5
C5
330
C1
100
AcDbEntity
  8
VORLAGE_TEXT
 62
     0
100
AcDbMText
 10
0.0
 20
0.0003219611
 30
0.0
 40
1.8
 41
0.0
 71
     1
 72
     1
  1
keitsgrad
  7
SLDTEXTSTYLE0
 73
     1
 44
1.0
  0
ENDBLK
  5
C3
330
C1
100
AcDbEntity
  8
0
100
AcDbBlockEnd
  0
BLOCK
  5
C8
330
C7
100
AcDbEntity
  8
0
100
AcDbBlockBegin
  2
SW_NOTE_0_11
 70
     0
 10
0.0
 20
0.0
 30
0.0
  3
SW_NOTE_0_11
  1

  0
MTEXT
  5
CA
330
C7
100
AcDbEntity
  8
VORLAGE_TEXT
 62
     0
100
AcDbMText
 10
6.80625
 20
2.3203219316
 30
0.0
 40
1.8
 41
0.0
 71
     3
 72
     1
  1
>  400
  7
SLDTEXTSTYLE1
 73
     1
 44
1.0
  0
MTEXT
  5
CB
330
C7
100
AcDbEntity
  8
VORLAGE_TEXT
 62
     0
100
AcDbMText
 10
7.0246870391
 20
0.0003219611
 30
0.0
 40
1.8
 41
0.0
 71
     3
 72
     1
  1
... 1000
  7
SLDTEXTSTYLE0
 73
     1
 44
1.0
  0
ENDBLK
  5
C9
330
C7
100
AcDbEntity
  8
0
100
AcDbBlockEnd
  0
BLOCK
  5
CE
330
CD
100
AcDbEntity
  8
0
100
AcDbBlockBegin
  2
SW_NOTE_0_12
 70
     0
 10
0.0
 20
0.0
 30
0.0
  3
SW_NOTE_0_12
  1

  0
MTEXT
  5
D1
330
CD
100
AcDbEntity
  8
VORLAGE_TEXT
 62
     0
100
AcDbMText
 10
5.45625
 20
2.3203219316
 30
0.0
 40
1.8
 41
0.0
 71
     3
 72
     1
  1
>  30
  7
SLDTEXTSTYLE2
 73
     1
 44
1.0
  0
MTEXT
  5
D2
330
CD
100
AcDbEntity
  8
VORLAGE_TEXT
 62
     0
100
AcDbMText
 10
5.6637495868
 20
0.0003219611
 30
0.0
 40
1.8
 41
0.0
 71
     3
 72
     1
  1
... 120
  7
SLDTEXTSTYLE0
 73
     1
 44
1.0
  0
ENDBLK
  5
CF
330
CD
100
AcDbEntity
  8
0
100
AcDbBlockEnd
  0
BLOCK
  5
D5
330
D4
100
AcDbEntity
  8
0
100
AcDbBlockBegin
  2
SW_NOTE_0_13
 70
     0
 10
0.0
 20
0.0
 30
0.0
  3
SW_NOTE_0_13
  1

  0
MTEXT
  5
D8
330
D4
100
AcDbEntity
  8
VORLAGE_TEXT
 62
     0
100
AcDbMText
 10
4.10625
 20
2.3203219316
 30
0.0
 40
1.8
 41
0.0
 71
     3
 72
     1
  1
>  3
  7
SLDTEXTSTYLE3
 73
     1
 44
1.0
  0
MTEXT
  5
D9
330
D4
100
AcDbEntity
  8
VORLAGE_TEXT
 62
     0
100
AcDbMText
 10
4.2490622841
 20
0.0003219611
 30
0.0
 40
1.8
 41
0.0
 71
     3
 72
     1
  1
... 6
  7
SLDTEXTSTYLE0
 73
     1
 44
1.0
  0
ENDBLK
  5
D6
330
D4
100
AcDbEntity
  8
0
100
AcDbBlockEnd
  0
BLOCK
  5
DC
330
DB
100
AcDbEntity
  8
0
100
AcDbBlockBegin
  2
SW_NOTE_0_14
 70
     0
 10
0.0
 20
0.0
 30
0.0
  3
SW_NOTE_0_14
  1

  0
MTEXT
  5
DE
330
DB
100
AcDbEntity
  8
VORLAGE_TEXT
 62
     0
100
AcDbMText
 10
3.375
 20
2.3203219316
 30
0.0
 40
1.8
 41
0.0
 71
     3
 72
     1
  1
0.5
  7
SLDTEXTSTYLE0
 73
     1
 44
1.0
  0
MTEXT
  5
DF
330
DB
100
AcDbEntity
  8
VORLAGE_TEXT
 62
     0
100
AcDbMText
 10
3.446875035
 20
0.0003219611
 30
0.0
 40
1.8
 41
0.0
 71
     3
 72
     1
  1
... 3
  7
SLDTEXTSTYLE0
 73
     1
 44
1.0
  0
ENDBLK
  5
DD
330
DB
100
AcDbEntity
  8
0
100
AcDbBlockEnd
  0
BLOCK
  5
E2
330
E1
100
AcDbEntity
  8
0
100
AcDbBlockBegin
  2
SW_NOTE_0_15
 70
     0
 10
0.0
 20
0.0
 30
0.0
  3
SW_NOTE_0_15
  1

  0
MTEXT
  5
E4
330
E1
100
AcDbEntity
  8
VORLAGE_TEXT
 62
     0
100
AcDbMText
 10
4.10625
 20
2.3203219316
 30
0.0
 40
1.8
 41
0.0
 71
     3
 72
     1
  1
>  6
  7
SLDTEXTSTYLE3
 73
     1
 44
1.0
  0
MTEXT
  5
E5
330
E1
100
AcDbEntity
  8
VORLAGE_TEXT
 62
     0
100
AcDbMText
 10
4.2546879031
 20
0.0003219611
 30
0.0
 40
1.8
 41
0.0
 71
     3
 72
     1
  1
... 30
  7
SLDTEXTSTYLE0
 73
     1
 44
1.0
  0
ENDBLK
  5
E3
330
E1
100
AcDbEntity
  8
0
100
AcDbBlockEnd
  0
BLOCK
  5
E8
330
E7
100
AcDbEntity
  8
0
100
AcDbBlockBegin
  2
SW_NOTE_0_16
 70
     0
 10
0.0
 20
0.0
 30
0.0
  3
SW_NOTE_0_16
  1

  0
MTEXT
  5
EB
330
E7
100
AcDbEntity
  8
VORLAGE_TEXT
 62
     0
100
AcDbMText
 10
8.15625
 20
2.3203219316
 30
0.0
 40
1.8
 41
0.0
 71
     3
 72
     1
  1
>  1000
  7
SLDTEXTSTYLE4
 73
     1
 44
1.0
  0
MTEXT
  5
EC
330
E7
100
AcDbEntity
  8
VORLAGE_TEXT
 62
     0
100
AcDbMText
 10
8.2353127882
 20
0.0003219611
 30
0.0
 40
1.8
 41
0.0
 71
     3
 72
     1
  1
... 2000
  7
SLDTEXTSTYLE0
 73
     1
 44
1.0
  0
ENDBLK
  5
E9
330
E7
100
AcDbEntity
  8
0
100
AcDbBlockEnd
  0
BLOCK
  5
EF
330
EE
100
AcDbEntity
  8
0
100
AcDbBlockBegin
  2
SW_NOTE_0_17
 70
     0
 10
0.0
 20
0.0
 30
0.0
  3
SW_NOTE_0_17
  1

  0
MTEXT
  5
F1
330
EE
100
AcDbEntity
  8
VORLAGE_TEXT
 62
     0
100
AcDbMText
 10
0.0
 20
2.3203219316
 30
0.0
 40
1.8
 41
0.0
 71
     1
 72
     1
  1
± 1.2
  7
SLDTEXTSTYLE0
 73
     1
 44
1.0
  0
ENDBLK
  5
F0
330
EE
100
AcDbEntity
  8
0
100
AcDbBlockEnd
  0
BLOCK
  5
F4
330
F3
100
AcDbEntity
  8
0
100
AcDbBlockBegin
  2
ACO-Logo
 70
     0
 10
0.0
 20
0.0
 30
0.0
  3
ACO-Logo
  1

  0
ARC
  5
F6
330
F3
100
AcDbEntity
  8
0
  6
Continuous
 62
   179
370
    18
100
AcDbCircle
 10
80.3853261169
 20
4.9940995715
 30
0.0
 40
0.3000000000000441
100
AcDbArc
 50
181.9349323096
 51
274.6062978506
  0
ARC
  5
F7
330
F3
100
AcDbEntity
  8
0
  6
Continuous
 62
   179
370
    18
100
AcDbCircle
 10
81.2359083165
 20
2.1946665956
 30
0.0
 40
1.000000000000021
100
AcDbArc
 50
221.4087409628
 51
276.0561297228
  0
ARC
  5
F8
330
F3
100
AcDbEntity
  8
0
  6
Continuous
 62
   179
370
    18
100
AcDbCircle
 10
79.1360017163
 20
3.654242048
 30
0.0
 40
0.300000000000004
100
AcDbArc
 50
181.2730300201
 51
274.4996077095
  0
ARC
  5
F9
330
F3
100
AcDbEntity
  8
0
  6
Continuous
 62
   179
370
    18
100
AcDbCircle
 10
78.7699033484
 20
3.2873137407
 30
0.0
 40
0.4000000000000358
100
AcDbArc
 50
221.0090869016
 51
274.5606296317
  0
ARC
  5
FA
330
F3
100
AcDbEntity
  8
0
  6
Continuous
 62
   179
370
    18
100
AcDbCircle
 10
91.2333953062
 20
4.6062442307
 30
0.0
 40
0.3000000000000493
100
AcDbArc
 50
274.4996077095
 51
3.7249371334
  0
ARC
  5
FB
330
F3
100
AcDbEntity
  8
0
  6
Continuous
 62
   179
370
    18
100
AcDbCircle
 10
81.5287571045
 20
9.7648973508
 30
0.0
 40
1.00000000000002
100
AcDbArc
 50
93.1134387481
 51
181.9414863909
  0
ARC
  5
FC
330
F3
100
AcDbEntity
  8
0
  6
Continuous
 62
   179
370
    18
100
AcDbCircle
 10
81.6051675115
 20
7.5107903456
 30
0.0
 40
1.0
100
AcDbArc
 50
181.9414863909
 51
274.398705355
  0
ARC
  5
FD
330
F3
100
AcDbEntity
  8
0
  6
Continuous
 62
   179
370
    18
100
AcDbCircle
 10
80.1506905656
 20
11.9393118923
 30
0.0
 40
0.300000000000045
100
AcDbArc
 50
93.0418421566
 51
181.9349323096
  0
ARC
  5
FE
330
F3
100
AcDbEntity
  8
0
  6
Continuous
 62
   179
370
    18
100
AcDbCircle
 10
78.1879722102
 20
12.3499352608
 30
0.0
 40
0.7999999999953393
100
AcDbArc
 50
92.6995697565
 51
148.2554209065
  0
ARC
  5
FF
330
F3
100
AcDbEntity
  8
0
  6
Continuous
 62
   179
370
    18
100
AcDbCircle
 10
78.930862229
 20
12.8855189761
 30
0.0
 40
0.3000000000000031
100
AcDbArc
 50
92.6995697565
 51
181.2730300201
  0
ARC
  5
100
330
F3
100
AcDbEntity
  8
0
  6
Continuous
 62
   179
370
    18
100
AcDbCircle
 10
82.327743407
 20
9.8083568568
 30
0.0
 40
1.000000000000034
100
AcDbArc
 50
1.9414863909
 51
93.1134387481
  0
ARC
  5
101
330
F3
100
AcDbEntity
  8
0
  6
Continuous
 62
   179
370
    18
100
AcDbCircle
 10
81.5287571045
 20
9.7648973508
 30
0.0
 40
0.3625000000000009
100
AcDbArc
 50
93.1134387481
 51
181.9414863909
  0
ARC
  5
102
330
F3
100
AcDbEntity
  8
0
  6
Continuous
 62
   179
370
    18
100
AcDbCircle
 10
82.327743407
 20
9.8083568568
 30
0.0
 40
0.3625000000000146
100
AcDbArc
 50
1.9414863909
 51
93.1134387481
  0
ARC
  5
103
330
F3
100
AcDbEntity
  8
0
  6
Continuous
 62
   179
370
    18
100
AcDbCircle
 10
82.4035451983
 20
7.5722040138
 30
0.0
 40
1.000000000000008
100
AcDbArc
 50
274.398705355
 51
1.9414863909
  0
ARC
  5
104
330
F3
100
AcDbEntity
  8
0
  6
Continuous
 62
   179
370
    18
100
AcDbCircle
 10
82.4035451983
 20
7.5722040138
 30
0.0
 40
0.3625000000000068
100
AcDbArc
 50
274.398705355
 51
1.9414863909
  0
ARC
  5
105
330
F3
100
AcDbEntity
  8
0
  6
Continuous
 62
   179
370
    18
100
AcDbCircle
 10
81.6051675115
 20
7.5107903456
 30
0.0
 40
0.3625000000000111
100
AcDbArc
 50
181.9414863909
 51
274.398705355
  0
ARC
  5
106
330
F3
100
AcDbEntity
  8
0
  6
Continuous
 62
   179
370
    18
100
AcDbCircle
 10
88.825822761
 20
8.0662148274
 30
0.0
 40
0.9999999999999997
100
AcDbArc
 50
274.398705355
 51
2.6541955134
  0
ARC
  5
107
330
F3
100
AcDbEntity
  8
0
  6
Continuous
 62
   179
370
    18
100
AcDbCircle
 10
90.1578295581
 20
5.7814576687
 30
0.0
 40
0.3000000000000043
100
AcDbArc
 50
274.6062978507
 51
2.5147526475
  0
ARC
  5
108
330
F3
100
AcDbEntity
  8
0
  6
Continuous
 62
   179
370
    18
100
AcDbCircle
 10
88.825822761
 20
8.0662148274
 30
0.0
 40
0.3625000000000083
100
AcDbArc
 50
274.398705355
 51
2.6541955134
  0
ARC
  5
109
330
F3
100
AcDbEntity
  8
0
  6
Continuous
 62
   179
370
    18
100
AcDbCircle
 10
88.728529747
 20
10.16496413
 30
0.0
 40
1.000000000000001
100
AcDbArc
 50
2.6541955134
 51
93.1134387481
  0
ARC
  5
10A
330
F3
100
AcDbEntity
  8
0
  6
Continuous
 62
   179
370
    18
100
AcDbCircle
 10
88.728529747
 20
10.16496413
 30
0.0
 40
0.3625000000000085
100
AcDbArc
 50
2.6541955134
 51
93.1134387481
  0
ARC
  5
10B
330
F3
100
AcDbEntity
  8
0
  6
Continuous
 62
   179
370
    18
100
AcDbCircle
 10
89.8647121341
 20
12.455515937
 30
0.0
 40
0.2999999999999984
100
AcDbArc
 50
2.5147526475
 51
93.0418421566
  0
ARC
  5
10C
330
F3
100
AcDbEntity
  8
0
  6
Continuous
 62
   179
370
    18
100
AcDbCircle
 10
90.6583795404
 20
13.4384863935
 30
0.0
 40
0.2999999999999911
100
AcDbArc
 50
3.7249371334
 51
92.6995697565
  0
CIRCLE
  5
10D
330
F3
100
AcDbEntity
  8
0
  6
Continuous
 62
   179
370
    18
100
AcDbCircle
 10
15.7233972286
 20
6.4054930194
 30
0.0
 40
1.579500000000014
  0
CIRCLE
  5
10E
330
F3
100
AcDbEntity
  8
0
  6
Continuous
 62
   179
370
    18
100
AcDbCircle
 10
15.7233972286
 20
6.4054930194
 30
0.0
 40
2.281499999999994
  0
ARC
  5
10F
330
F3
100
AcDbEntity
  8
0
  6
Continuous
 62
   179
370
    18
100
AcDbCircle
 10
89.7681336026
 20
2.3106616691
 30
0.0
 40
0.098384530246548
100
AcDbArc
 50
332.3802627259
 51
4.9765441602
  0
ARC
  5
110
330
F3
100
AcDbEntity
  8
0
  6
Continuous
 62
   179
370
    18
100
AcDbCircle
 10
89.6886560089
 20
2.3522464185
 30
0.0
 40
0.1880839130754018
100
AcDbArc
 50
303.690067526
 51
332.3802627258
  0
ARC
  5
111
330
F3
100
AcDbEntity
  8
0
  6
Continuous
 62
   179
370
    18
100
AcDbCircle
 10
89.4849700869
 20
2.6577753016
 30
0.0
 40
0.5552839311631531
100
AcDbArc
 50
287.108652213
 51
303.690067526
  0
ARC
  5
112
330
F3
100
AcDbEntity
  8
0
  6
Continuous
 62
   179
370
    18
100
AcDbCircle
 10
88.0513010646
 20
7.3154864882
 30
0.0
 40
5.428648309393203
100
AcDbArc
 50
285.2551187031
 51
287.108652213
  0
ARC
  5
113
330
F3
100
AcDbEntity
  8
0
  6
Continuous
 62
   179
370
    18
100
AcDbCircle
 10
89.1317168954
 20
3.3539617753
 30
0.0
 40
1.322436378825653
100
AcDbArc
 50
281.4991866428
 51
285.255118703
  0
ARC
  5
114
330
F3
100
AcDbEntity
  8
0
  6
Continuous
 62
   179
370
    18
100
AcDbCircle
 10
89.3198255509
 20
2.4293110075
 30
0.0
 40
0.3788454141584939
100
AcDbArc
 50
279.1917900003
 51
281.499186643
  0
ARC
  5
115
330
F3
100
AcDbEntity
  8
0
  6
Continuous
 62
   179
370
    18
100
AcDbCircle
 10
89.0487250788
 20
4.1046569124
 30
0.0
 40
2.07598399629105
100
AcDbArc
 50
277.7634675038
 51
279.1917900002
  0
ARC
  5
116
330
F3
100
AcDbEntity
  8
0
  6
Continuous
 62
   179
370
    18
100
AcDbCircle
 10
9.2588909915
 20
6.4054930194
 30
0.0
 40
1.579500000000074
100
AcDbArc
 50
31.0558004991
 51
330.0
  0
ARC
  5
117
330
F3
100
AcDbEntity
  8
0
  6
Continuous
 62
   179
370
    18
100
AcDbCircle
 10
9.2588909915
 20
6.4054930194
 30
0.0
 40
2.281500000000107
100
AcDbArc
 50
30.7309172659
 51
330.0
  0
ARC
  5
118
330
F3
100
AcDbEntity
  8
0
  6
Continuous
 62
   179
370
    18
100
AcDbCircle
 10
6.1288847544
 20
4.0685261312
 30
0.0
 40
4.914000000000307
100
AcDbArc
 50
172.3058370354
 51
179.7113029221
  0
ARC
  5
119
330
F3
100
AcDbEntity
  8
0
  6
Continuous
 62
   179
370
    18
100
AcDbCircle
 10
-0.5401152456
 20
4.0685261312
 30
0.0
 40
4.91400000000019
100
AcDbArc
 50
0.2886970779
 51
7.6941629646
  0
ARC
  5
11A
330
F3
100
AcDbEntity
  8
0
  6
Continuous
 62
   179
370
    18
100
AcDbCircle
 10
-0.5401152456
 20
4.0685261312
 30
0.0
 40
5.616000000000127
100
AcDbArc
 50
0.2526096926
 51
53.5764263577
  0
ARC
  5
11B
330
F3
100
AcDbEntity
  8
0
  6
Continuous
 62
   179
370
    18
100
AcDbCircle
 10
6.1288847544
 20
4.0685261312
 30
0.0
 40
5.61600000000074
100
AcDbArc
 50
126.4235736423
 51
179.7473903073
  0
ARC
  5
11C
330
F3
100
AcDbEntity
  8
0
  6
Continuous
 62
   179
370
    18
100
AcDbCircle
 10
-0.5401152456
 20
4.0685261312
 30
0.0
 40
4.914000000000161
100
AcDbArc
 50
16.0658750272
 51
47.2678899574
  0
ARC
  5
11D
330
F3
100
AcDbEntity
  8
0
  6
Continuous
 62
   179
370
    18
100
AcDbCircle
 10
6.1288847544
 20
4.0685261312
 30
0.0
 40
4.914000000000584
100
AcDbArc
 50
132.7321100426
 51
163.9341249728
  0
LINE
  5
11E
330
F3
100
AcDbEntity
  8
0
  6
Continuous
 62
   179
370
    18
100
AcDbLine
 10
78.8017089389
 20
2.8885802402
 30
0.0
 11
90.7982178739
 21
3.8455002136
 31
0.0
  0
LINE
  5
11F
330
F3
100
AcDbEntity
  8
0
  6
Continuous
 62
   179
370
    18
100
AcDbLine
 10
76.6545490427
 20
5.8693097374
 30
0.0
 11
78.0344191726
 21
3.5235305166
 31
0.0
  0
LINE
  5
120
330
F3
100
AcDbEntity
  8
0
  6
Continuous
 62
   179
370
    18
100
AcDbLine
 10
91.5327615373
 20
4.6257342197
 30
0.0
 11
90.9577457715
 21
13.4579763825
 31
0.0
  0
LINE
  5
121
330
F3
100
AcDbEntity
  8
0
  6
Continuous
 62
   179
370
    18
100
AcDbLine
 10
78.6309362756
 20
12.8788539549
 30
0.0
 11
78.8360757629
 21
3.6475770268
 31
0.0
  0
LINE
  5
122
330
F3
100
AcDbEntity
  8
0
  6
Continuous
 62
   179
370
    18
100
AcDbLine
 10
80.4094186633
 20
4.6950685544
 30
0.0
 11
90.1819221045
 21
5.4824266516
 31
0.0
  0
LINE
  5
123
330
F3
100
AcDbEntity
  8
0
  6
Continuous
 62
   179
370
    18
100
AcDbLine
 10
79.1595373973
 20
3.3551666867
 30
0.0
 11
91.2569309872
 21
4.3071688694
 31
0.0
  0
LINE
  5
124
330
F3
100
AcDbEntity
  8
0
  6
Continuous
 62
   179
370
    18
100
AcDbLine
 10
79.2585043218
 20
2.925017226
 30
0.0
 11
80.4858981444
 21
1.533240302
 31
0.0
  0
LINE
  5
125
330
F3
100
AcDbEntity
  8
0
  6
Continuous
 62
   179
370
    18
100
AcDbLine
 10
78.0344191726
 20
3.5235305166
 30
0.0
 11
78.3638740472
 21
3.1446574108
 31
0.0
  0
LINE
  5
126
330
F3
100
AcDbEntity
  8
0
  6
Continuous
 62
   179
370
    18
100
AcDbLine
 10
78.3638740472
 20
3.1446574108
 30
0.0
 11
78.4680611395
 21
3.0248422547
 31
0.0
  0
LINE
  5
127
330
F3
100
AcDbEntity
  8
0
  6
Continuous
 62
   179
370
    18
100
AcDbLine
 10
81.3414110113
 20
1.2002475785
 30
0.0
 11
89.3291569519
 21
2.0477010263
 31
0.0
  0
LINE
  5
128
330
F3
100
AcDbEntity
  8
0
  6
Continuous
 62
   179
370
    18
100
AcDbLine
 10
89.8661472522
 20
2.5197759309
 30
0.0
 11
89.8661472522
 21
2.3090867337
 31
0.0
  0
LINE
  5
129
330
F3
100
AcDbEntity
  8
0
  6
Continuous
 62
   179
370
    18
100
AcDbLine
 10
88.676842368
 20
3.6762854359
 30
0.0
 11
89.6713239345
 21
2.7875997807
 31
0.0
  0
LINE
  5
12A
330
F3
100
AcDbEntity
  8
0
  6
Continuous
 62
   179
370
    18
100
AcDbLine
 10
89.6713239345
 20
2.7875997807
 30
0.0
 11
89.7459749087
 21
2.7242700694
 31
0.0
  0
LINE
  5
12B
330
F3
100
AcDbEntity
  8
0
  6
Continuous
 62
   179
370
    18
100
AcDbLine
 10
90.7982178739
 20
3.8455002136
 30
0.0
 11
91.3961615969
 21
4.3514525945
 31
0.0
  0
LINE
  5
12C
330
F3
100
AcDbEntity
  8
0
  6
Continuous
 62
   179
370
    18
100
AcDbLine
 10
90.6442498554
 20
13.7381534621
 30
0.0
 11
78.1502930503
 21
13.1490474438
 31
0.0
  0
LINE
  5
12D
330
F3
100
AcDbEntity
  8
0
  6
Continuous
 62
   179
370
    18
100
AcDbLine
 10
80.1347709981
 20
12.2388892068
 30
0.0
 11
89.8487925667
 21
12.7550932515
 31
0.0
  0
LINE
  5
12E
330
F3
100
AcDbEntity
  8
0
  6
Continuous
 62
   179
370
    18
100
AcDbLine
 10
76.4935641943
 20
11.7567556248
 30
0.0
 11
76.6545490427
 21
5.8693097374
 31
0.0
  0
LINE
  5
12F
330
F3
100
AcDbEntity
  8
0
  6
Continuous
 62
   179
370
    18
100
AcDbLine
 10
79.8508616208
 20
11.929182536
 30
0.0
 11
80.0854971721
 21
4.9839702153
 31
0.0
  0
LINE
  5
130
330
F3
100
AcDbEntity
  8
0
  6
Continuous
 62
   179
370
    18
100
AcDbLine
 10
80.5293311574
 20
9.7310185051
 30
0.0
 11
80.6057415643
 21
7.4769115
 31
0.0
  0
LINE
  5
131
330
F3
100
AcDbEntity
  8
0
  6
Continuous
 62
   179
370
    18
100
AcDbLine
 10
77.507650604
 20
12.7708420346
 30
0.0
 11
76.4935641943
 21
11.7567556248
 31
0.0
  0
LINE
  5
132
330
F3
100
AcDbEntity
  8
0
  6
Continuous
 62
   179
370
    18
100
AcDbLine
 10
86.8848195129
 20
11.0661568594
 30
0.0
 11
88.6742167283
 21
11.1634880887
 31
0.0
  0
LINE
  5
133
330
F3
100
AcDbEntity
  8
0
  6
Continuous
 62
   179
370
    18
100
AcDbLine
 10
87.0766213517
 20
6.9287171941
 30
0.0
 11
88.90708891
 21
7.0695223909
 31
0.0
  0
LINE
  5
134
330
F3
100
AcDbEntity
  8
0
  6
Continuous
 62
   179
370
    18
100
AcDbLine
 10
87.6830038473
 20
7.6147347768
 30
0.0
 11
88.8536252418
 21
7.7047825764
 31
0.0
  0
LINE
  5
135
330
F3
100
AcDbEntity
  8
0
  6
Continuous
 62
   179
370
    18
100
AcDbLine
 10
87.5509212094
 20
10.4639459651
 30
0.0
 11
88.7088412777
 21
10.5269290651
 31
0.0
  0
LINE
  5
136
330
F3
100
AcDbEntity
  8
0
  6
Continuous
 62
   179
370
    18
100
AcDbLine
 10
87.0766218384
 20
6.9287066941
 30
0.0
 11
86.8848195129
 21
11.0661568594
 31
0.0
  0
LINE
  5
137
330
F3
100
AcDbEntity
  8
0
  6
Continuous
 62
   179
370
    18
100
AcDbLine
 10
83.7004598825
 20
6.6667911093
 30
0.0
 11
84.5054929504
 21
10.9267193262
 31
0.0
  0
LINE
  5
138
330
F3
100
AcDbEntity
  8
0
  6
Continuous
 62
   179
370
    18
100
AcDbLine
 10
85.3543248406
 20
10.9728900984
 30
0.0
 11
86.4940946704
 21
6.8816860929
 31
0.0
  0
LINE
  5
139
330
F3
100
AcDbEntity
  8
0
  6
Continuous
 62
   179
370
    18
100
AcDbLine
 10
84.9728575427
 20
9.9667192298
 30
0.0
 11
85.4540299774
 21
8.2395506903
 31
0.0
  0
LINE
  5
13A
330
F3
100
AcDbEntity
  8
0
  6
Continuous
 62
   179
370
    18
100
AcDbLine
 10
84.6363094629
 20
8.1858350416
 30
0.0
 11
84.9728575427
 21
9.9667192298
 31
0.0
  0
LINE
  5
13B
330
F3
100
AcDbEntity
  8
0
  6
Continuous
 62
   179
370
    18
100
AcDbLine
 10
87.6830038473
 20
7.6147347768
 30
0.0
 11
87.5509212094
 21
10.4639459651
 31
0.0
  0
LINE
  5
13C
330
F3
100
AcDbEntity
  8
0
  6
Continuous
 62
   179
370
    18
100
AcDbLine
 10
84.6363094629
 20
8.1858350416
 30
0.0
 11
85.4540299774
 21
8.2395506903
 31
0.0
  0
LINE
  5
13D
330
F3
100
AcDbEntity
  8
0
  6
Continuous
 62
   179
370
    18
100
AcDbLine
 10
84.5140586807
 20
7.5389304886
 30
0.0
 11
85.6288154243
 21
7.6121582976
 31
0.0
  0
LINE
  5
13E
330
F3
100
AcDbEntity
  8
0
  6
Continuous
 62
   179
370
    18
100
AcDbLine
 10
84.3588137958
 20
6.717433718
 30
0.0
 11
84.5140586807
 21
7.5389304886
 31
0.0
  0
LINE
  5
13F
330
F3
100
AcDbEntity
  8
0
  6
Continuous
 62
   179
370
    18
100
AcDbLine
 10
81.6818640104
 20
6.5137358601
 30
0.0
 11
82.4802416972
 21
6.5751495283
 31
0.0
  0
LINE
  5
140
330
F3
100
AcDbEntity
  8
0
  6
Continuous
 62
   179
370
    18
100
AcDbLine
 10
81.6329699923
 20
7.1493580946
 30
0.0
 11
82.4313476791
 21
7.2107717628
 31
0.0
  0
LINE
  5
141
330
F3
100
AcDbEntity
  8
0
  6
Continuous
 62
   179
370
    18
100
AcDbLine
 10
83.7004598825
 20
6.6667911093
 30
0.0
 11
84.3588137958
 21
6.717433718
 31
0.0
  0
LINE
  5
142
330
F3
100
AcDbEntity
  8
0
  6
Continuous
 62
   179
370
    18
100
AcDbLine
 10
82.7059483815
 20
9.3512024135
 30
0.0
 11
83.3423973297
 21
9.3930104243
 31
0.0
  0
LINE
  5
143
330
F3
100
AcDbEntity
  8
0
  6
Continuous
 62
   179
370
    18
100
AcDbLine
 10
82.7491656358
 20
8.0762934118
 30
0.0
 11
83.385614584
 21
8.1181014226
 31
0.0
  0
LINE
  5
144
330
F3
100
AcDbEntity
  8
0
  6
Continuous
 62
   179
370
    18
100
AcDbLine
 10
81.1664651987
 20
9.7526162692
 30
0.0
 11
81.2428756056
 21
7.4985092641
 31
0.0
  0
LINE
  5
145
330
F3
100
AcDbEntity
  8
0
  6
Continuous
 62
   179
370
    18
100
AcDbLine
 10
82.6900353128
 20
9.8206379383
 30
0.0
 11
82.7052632884
 21
9.3714126602
 31
0.0
  0
LINE
  5
146
330
F3
100
AcDbEntity
  8
0
  6
Continuous
 62
   179
370
    18
100
AcDbLine
 10
82.7491656358
 20
8.0762934118
 30
0.0
 11
82.7658371041
 21
7.5844850954
 31
0.0
  0
LINE
  5
147
330
F3
100
AcDbEntity
  8
0
  6
Continuous
 62
   179
370
    18
100
AcDbLine
 10
83.3271693541
 20
9.8422357024
 30
0.0
 11
83.3423973297
 21
9.3930104243
 31
0.0
  0
LINE
  5
148
330
F3
100
AcDbEntity
  8
0
  6
Continuous
 62
   179
370
    18
100
AcDbLine
 10
83.385614584
 20
8.1181014226
 30
0.0
 11
83.4029711454
 21
7.6060828595
 31
0.0
  0
LINE
  5
149
330
F3
100
AcDbEntity
  8
0
  6
Continuous
 62
   179
370
    18
100
AcDbLine
 10
85.6288154243
 20
7.6121582976
 30
0.0
 11
85.8462022593
 21
6.8318482152
 31
0.0
  0
LINE
  5
14A
330
F3
100
AcDbEntity
  8
0
  6
Continuous
 62
   179
370
    18
100
AcDbLine
 10
85.8462022593
 20
6.8318482152
 30
0.0
 11
86.4940946704
 21
6.8816860929
 31
0.0
  0
LINE
  5
14B
330
F3
100
AcDbEntity
  8
0
  6
Continuous
 62
   179
370
    18
100
AcDbLine
 10
84.5054929504
 20
10.9267193262
 30
0.0
 11
85.3543248406
 21
10.9728900984
 31
0.0
  0
LINE
  5
14C
330
F3
100
AcDbEntity
  8
0
  6
Continuous
 62
   179
370
    18
100
AcDbLine
 10
81.4744440858
 20
10.7634213094
 30
0.0
 11
82.2734303883
 21
10.8068808154
 31
0.0
  0
LINE
  5
14D
330
F3
100
AcDbEntity
  8
0
  6
Continuous
 62
   179
370
    18
100
AcDbLine
 10
81.5090686352
 20
10.1268622858
 30
0.0
 11
82.3080549377
 21
10.1703217918
 31
0.0
  0
LINE
  5
14E
330
F3
100
AcDbEntity
  8
0
  6
Continuous
 62
   179
370
    18
100
AcDbLine
 10
90.4575406452
 20
5.7946206556
 30
0.0
 11
90.1644232213
 21
12.4686789239
 31
0.0
  0
LINE
  5
14F
330
F3
100
AcDbEntity
  8
0
  6
Continuous
 62
   179
370
    18
100
AcDbLine
 10
89.8247499755
 20
8.1125227115
 30
0.0
 11
89.7274569615
 21
10.2112720142
 31
0.0
  0
LINE
  5
150
330
F3
100
AcDbEntity
  8
0
  6
Continuous
 62
   179
370
    18
100
AcDbLine
 10
89.1879338763
 20
8.0830014354
 30
0.0
 11
89.0906408622
 21
10.181750738
 31
0.0
  0
LINE
  5
151
330
F3
100
AcDbEntity
  8
0
  6
Continuous
 62
   179
370
    18
100
AcDbLine
 10
89.7459749087
 20
2.7242700694
 30
0.0
 11
89.7974962577
 21
2.6659765769
 31
0.0
  0
LINE
  5
152
330
F3
100
AcDbEntity
  8
0
  6
Continuous
 62
   179
370
    18
100
AcDbLine
 10
89.7974962577
 20
2.6659765769
 30
0.0
 11
89.8351851379
 21
2.60192886
 31
0.0
  0
LINE
  5
153
330
F3
100
AcDbEntity
  8
0
  6
Continuous
 62
   179
370
    18
100
AcDbLine
 10
89.8351851379
 20
2.60192886
 30
0.0
 11
89.8661472522
 21
2.5197759309
 31
0.0
  0
LINE
  5
154
330
F3
100
AcDbEntity
  8
0
  6
Continuous
 62
   179
370
    18
100
AcDbLine
 10
10.6119938288
 20
7.2203138351
 30
0.0
 11
11.2200151261
 21
7.5713550947
 31
0.0
  0
LINE
  5
155
330
F3
100
AcDbEntity
  8
0
  6
Continuous
 62
   179
370
    18
100
AcDbLine
 10
11.2347279503
 20
5.2647430194
 30
0.0
 11
10.6267781168
 21
5.6157430194
 31
0.0
  0
LINE
  5
156
330
F3
100
AcDbEntity
  8
0
  6
Continuous
 62
   179
370
    18
100
AcDbLine
 10
6.4645062371
 20
16.1712617198
 30
0.0
 11
6.4645062371
 21
2.9364593988
 31
0.0
  0
LINE
  5
157
330
F3
100
AcDbEntity
  8
0
  6
Continuous
 62
   179
370
    18
100
AcDbLine
 10
6.4645062371
 20
2.9364593988
 30
0.0
 11
12.0532757459
 21
2.9364593988
 31
0.0
  0
LINE
  5
158
330
F3
100
AcDbEntity
  8
0
  6
Continuous
 62
   179
370
    18
100
AcDbLine
 10
12.0532757459
 20
2.9364593988
 30
0.0
 11
12.0532757459
 21
16.1712617198
 31
0.0
  0
LINE
  5
159
330
F3
100
AcDbEntity
  8
0
  6
Continuous
 62
   179
370
    18
100
AcDbLine
 10
12.0532757459
 20
16.1712617198
 30
0.0
 11
6.4645062371
 21
16.1712617198
 31
0.0
  0
LINE
  5
15A
330
F3
100
AcDbEntity
  8
0
  6
Continuous
 62
   179
370
    18
100
AcDbLine
 10
0.0
 20
16.1712617198
 30
0.0
 11
0.0
 21
2.9364593988
 31
0.0
  0
LINE
  5
15B
330
F3
100
AcDbEntity
  8
0
  6
Continuous
 62
   179
370
    18
100
AcDbLine
 10
0.0
 20
2.9364593988
 30
0.0
 11
5.5887695089
 21
2.9364593988
 31
0.0
  0
LINE
  5
15C
330
F3
100
AcDbEntity
  8
0
  6
Continuous
 62
   179
370
    18
100
AcDbLine
 10
5.5887695089
 20
2.9364593988
 30
0.0
 11
5.5887695089
 21
16.1712617198
 31
0.0
  0
LINE
  5
15D
330
F3
100
AcDbEntity
  8
0
  6
Continuous
 62
   179
370
    18
100
AcDbLine
 10
5.5887695089
 20
16.1712617198
 30
0.0
 11
0.0
 21
16.1712617198
 31
0.0
  0
LINE
  5
15E
330
F3
100
AcDbEntity
  8
0
  6
Continuous
 62
   179
370
    18
100
AcDbLine
 10
1.2591262606
 20
4.7264381407
 30
0.0
 11
4.3296432482
 21
4.7264381407
 31
0.0
  0
LINE
  5
15F
330
F3
100
AcDbEntity
  8
0
  6
Continuous
 62
   179
370
    18
100
AcDbLine
 10
4.3738223747
 20
4.0932862697
 30
0.0
 11
5.0758301722
 21
4.0932862697
 31
0.0
  0
LINE
  5
160
330
F3
100
AcDbEntity
  8
0
  6
Continuous
 62
   179
370
    18
100
AcDbLine
 10
0.5129393366
 20
4.0932862697
 30
0.0
 11
1.2149471342
 21
4.0932862697
 31
0.0
  0
LINE
  5
161
330
F3
100
AcDbEntity
  8
0
  6
Continuous
 62
   179
370
    18
100
AcDbLine
 10
4.1819643097
 20
5.4284381407
 30
0.0
 11
1.4068051992
 21
5.4284381407
 31
0.0
  0
LINE
  5
162
330
F3
100
AcDbEntity
  8
0
  6
Continuous
 62
   179
370
    18
100
AcDbLine
 10
18.517781983
 20
16.1712617198
 30
0.0
 11
18.517781983
 21
2.9364593988
 31
0.0
  0
LINE
  5
163
330
F3
100
AcDbEntity
  8
0
  6
Continuous
 62
   179
370
    18
100
AcDbLine
 10
18.517781983
 20
2.9364593988
 30
0.0
 11
12.9290124742
 21
2.9364593988
 31
0.0
  0
LINE
  5
164
330
F3
100
AcDbEntity
  8
0
  6
Continuous
 62
   179
370
    18
100
AcDbLine
 10
12.9290124742
 20
2.9364593988
 30
0.0
 11
12.9290124742
 21
16.1712617198
 31
0.0
  0
LINE
  5
165
330
F3
100
AcDbEntity
  8
0
  6
Continuous
 62
   179
370
    18
100
AcDbLine
 10
12.9290124742
 20
16.1712617198
 30
0.0
 11
18.517781983
 21
16.1712617198
 31
0.0
  0
INSERT
  5
16A
330
F3
100
AcDbEntity
  8
0
  6
Continuous
 62
     7
370
     0
100
AcDbBlockReference
  2
SW_NOTE_0_18
 10
1.8998941161
 20
-0.3226565443
 30
0.0
  0
INSERT
  5
16F
330
F3
100
AcDbEntity
  8
0
  6
Continuous
 62
     7
370
     0
100
AcDbBlockReference
  2
SW_NOTE_0_19
 10
29.1164837035
 20
12.7459167441
 30
0.0
  0
INSERT
  5
177
330
F3
100
AcDbEntity
  8
0
  6
Continuous
 62
     7
370
     0
100
AcDbBlockReference
  2
SW_NOTE_0_20
 10
28.8863479825
 20
8.6365742194
 30
0.0
  0
ENDBLK
  5
F5
330
F3
100
AcDbEntity
  8
0
100
AcDbBlockEnd
  0
BLOCK
  5
167
330
166
100
AcDbEntity
  8
0
100
AcDbBlockBegin
  2
SW_NOTE_0_18
 70
     0
 10
0.0
 20
0.0
 30
0.0
  3
SW_NOTE_0_18
  1

  0
MTEXT
  5
169
330
166
100
AcDbEntity
  8
0
  6
Continuous
 62
     0
370
     0
100
AcDbMText
 10
7.09375
 20
2.5781354795
 30
0.0
 40
2.0
 41
0.0
 71
     2
 72
     1
  1
www.aco.ch
  7
SLDTEXTSTYLE0
 73
     1
 44
1.0
  0
ENDBLK
  5
168
330
166
100
AcDbEntity
  8
0
100
AcDbBlockEnd
  0
BLOCK
  5
16C
330
16B
100
AcDbEntity
  8
0
100
AcDbBlockBegin
  2
SW_NOTE_0_19
 70
     0
 10
0.0
 20
0.0
 30
0.0
  3
SW_NOTE_0_19
  1

  0
MTEXT
  5
16E
330
16B
100
AcDbEntity
  8
0
  6
Continuous
 62
     0
370
     0
100
AcDbMText
 10
0.0
 20
3.8672032193
 30
0.0
 40
3.0
 41
0.0
 71
     1
 72
     1
  1
ACO AG
  7
SLDTEXTSTYLE0
 73
     1
 44
1.0
  0
ENDBLK
  5
16D
330
16B
100
AcDbEntity
  8
0
100
AcDbBlockEnd
  0
BLOCK
  5
171
330
170
100
AcDbEntity
  8
0
100
AcDbBlockBegin
  2
SW_NOTE_0_20
 70
     0
 10
0.0
 20
0.0
 30
0.0
  3
SW_NOTE_0_20
  1

  0
MTEXT
  5
173
330
170
100
AcDbEntity
  8
0
  6
Continuous
 62
     0
370
     0
100
AcDbMText
 10
0.0
 20
2.5781354795
 30
0.0
 40
2.0
 41
0.0
 71
     1
 72
     1
  1
Industrie Kleinzaun
  7
SLDTEXTSTYLE0
 73
     1
 44
1.0
  0
MTEXT
  5
174
330
170
100
AcDbEntity
  8
0
  6
Continuous
 62
     0
370
     0
100
AcDbMText
 10
0.0
 20
-0.4218645465
 30
0.0
 40
2.0
 41
0.0
 71
     1
 72
     1
  1
CH-8754 Netstal
  7
SLDTEXTSTYLE0
 73
     1
 44
1.0
  0
MTEXT
  5
175
330
170
100
AcDbEntity
  8
0
  6
Continuous
 62
     0
370
     0
100
AcDbMText
 10
0.0
 20
-3.4218645726
 30
0.0
 40
2.0
 41
0.0
 71
     1
 72
     1
  1
Tel. 055 / 645 53 00
  7
SLDTEXTSTYLE0
 73
     1
 44
1.0
  0
MTEXT
  5
176
330
170
100
AcDbEntity
  8
0
  6
Continuous
 62
     0
370
     0
100
AcDbMText
 10
0.0
 20
-6.4218645987
 30
0.0
 40
2.0
 41
0.0
 71
     1
 72
     1
  1
E-Mail: aco@aco.ch
  7
SLDTEXTSTYLE0
 73
     1
 44
1.0
  0
ENDBLK
  5
172
330
170
100
AcDbEntity
  8
0
100
AcDbBlockEnd
  0
BLOCK
  5
1F1
330
1F0
100
AcDbEntity
  8
0
100
AcDbBlockBegin
  2
SW_NOTE_0_21
 70
     0
 10
0.0
 20
0.0
 30
0.0
  3
SW_NOTE_0_21
  1

  0
MTEXT
  5
1F3
330
1F0
100
AcDbEntity
  8
0
  6
Continuous
 62
     0
370
     0
100
AcDbMText
 10
0.0
 20
1.9336016097
 30
0.0
 40
1.5
 41
0.0
 71
     1
 72
     1
  1
Diese Zeichnung darf weder kopiert
  7
SLDTEXTSTYLE0
 73
     1
 44
1.0
  0
MTEXT
  5
1F4
330
1F0
100
AcDbEntity
  8
0
  6
Continuous
 62
     0
370
     0
100
AcDbMText
 10
0.0
 20
-0.5663983345
 30
0.0
 40
1.5
 41
0.0
 71
     1
 72
     1
  1
noch dritten Personen, insbesondere
  7
SLDTEXTSTYLE0
 73
     1
 44
1.0
  0
MTEXT
  5
1F5
330
1F0
100
AcDbEntity
  8
0
  6
Continuous
 62
     0
370
     0
100
AcDbMText
 10
0.0
 20
-3.0663982786
 30
0.0
 40
1.5
 41
0.0
 71
     1
 72
     1
  1
zum Zweck anderweitiger Benutzung
  7
SLDTEXTSTYLE0
 73
     1
 44
1.0
  0
MTEXT
  5
1F6
330
1F0
100
AcDbEntity
  8
0
  6
Continuous
 62
     0
370
     0
100
AcDbMText
 10
0.0
 20
-5.5663982227
 30
0.0
 40
1.5
 41
0.0
 71
     1
 72
     1
  1
mitgeteilt werden und bleibt unser
  7
SLDTEXTSTYLE0
 73
     1
 44
1.0
  0
MTEXT
  5
1F7
330
1F0
100
AcDbEntity
  8
0
  6
Continuous
 62
     0
370
     0
100
AcDbMText
 10
0.0
 20
-8.0663981668
 30
0.0
 40
1.5
 41
0.0
 71
     1
 72
     1
  1
Eigentum.
  7
SLDTEXTSTYLE0
 73
     1
 44
1.0
  0
ENDBLK
  5
1F2
330
1F0
100
AcDbEntity
  8
0
100
AcDbBlockEnd
  0
BLOCK
  5
21B
330
21A
100
AcDbEntity
  8
0
100
AcDbBlockBegin
  2
SW_CENTERMARKSYMBOL_0
 70
     0
 10
0.0
 20
0.0
 30
0.0
  3
SW_CENTERMARKSYMBOL_0
  1

  0
LINE
  5
21D
330
21A
100
AcDbEntity
  8
0
  6
Continuous
 62
     0
370
    18
100
AcDbLine
 10
0.0
 20
0.0
 30
0.0
 11
0.0
 21
2.5
 31
0.0
  0
LINE
  5
21E
330
21A
100
AcDbEntity
  8
0
  6
Continuous
 62
     0
370
    18
100
AcDbLine
 10
0.0
 20
0.0
 30
0.0
 11
-2.5
 21
0.0
 31
0.0
  0
LINE
  5
21F
330
21A
100
AcDbEntity
  8
0
  6
Continuous
 62
     0
370
    18
100
AcDbLine
 10
0.0
 20
0.0
 30
0.0
 11
0.0
 21
-2.5
 31
0.0
  0
LINE
  5
220
330
21A
100
AcDbEntity
  8
0
  6
Continuous
 62
     0
370
    18
100
AcDbLine
 10
0.0
 20
0.0
 30
0.0
 11
2.5
 21
0.0
 31
0.0
  0
LINE
  5
221
330
21A
100
AcDbEntity
  8
0
  6
Continuous
 62
     0
370
    18
100
AcDbLine
 10
0.0
 20
5.0
 30
0.0
 11
0.0
 21
74.9999999261
 31
0.0
  0
LINE
  5
222
330
21A
100
AcDbEntity
  8
0
  6
Continuous
 62
     0
370
    18
100
AcDbLine
 10
-5.0
 20
0.0
 30
0.0
 11
-74.9999999261
 21
0.0
 31
0.0
  0
LINE
  5
223
330
21A
100
AcDbEntity
  8
0
  6
Continuous
 62
     0
370
    18
100
AcDbLine
 10
0.0
 20
-5.0
 30
0.0
 11
0.0
 21
-74.9999999261
 31
0.0
  0
LINE
  5
224
330
21A
100
AcDbEntity
  8
0
  6
Continuous
 62
     0
370
    18
100
AcDbLine
 10
5.0
 20
0.0
 30
0.0
 11
74.9999999261
 21
0.0
 31
0.0
  0
ENDBLK
  5
21C
330
21A
100
AcDbEntity
  8
0
100
AcDbBlockEnd
  0
BLOCK
  5
28B
330
28A
100
AcDbEntity
  8
0
100
AcDbBlockBegin
  2
_D
 70
     0
 10
0.0
 20
0.0
 30
0.0
  3
_D
  1

  0
SOLID
  5
28D
330
28A
100
AcDbEntity
  8
0
  6
Continuous
 62
     7
370
    18
100
AcDbTrace
 10
56.8683405912
 20
256.391673242
 30
0.0
 11
60.3683405912
 21
255.8532117035
 31
0.0
 12
60.3683405912
 22
256.9301347804
 32
0.0
 13
60.3683405912
 23
256.9301347804
 33
0.0
  0
SOLID
  5
28E
330
28A
100
AcDbEntity
  8
0
  6
Continuous
 62
     7
370
    18
100
AcDbTrace
 10
201.8683404433
 20
256.391673242
 30
0.0
 11
198.3683404433
 21
256.9301347804
 31
0.0
 12
198.3683404433
 22
255.8532117035
 32
0.0
 13
198.3683404433
 23
255.8532117035
 33
0.0
  0
LINE
  5
28F
330
28A
100
AcDbEntity
  8
0
  6
Continuous
 62
     7
370
     0
100
AcDbLine
 10
56.8683405912
 20
244.9916732435
 30
0.0
 11
56.8683405912
 21
257.391673242
 31
0.0
  0
LINE
  5
290
330
28A
100
AcDbEntity
  8
0
  6
Continuous
 62
     7
370
     0
100
AcDbLine
 10
201.8683404433
 20
244.9916732435
 30
0.0
 11
201.8683404433
 21
257.391673242
 31
0.0
  0
LINE
  5
291
330
28A
100
AcDbEntity
  8
0
  6
Continuous
 62
     7
370
     0
100
AcDbLine
 10
56.8683405912
 20
256.391673242
 30
0.0
 11
201.8683404433
 21
256.391673242
 31
0.0
  0
MTEXT
  5
292
330
28A
100
AcDbEntity
  8
0
  6
Continuous
 62
     7
370
    18
100
AcDbMText
 10
122.8064484101
 20
260.9034103312
 30
0.0
 40
3.5
 41
0.0
 71
     1
 72
     1
  1
%%c
  7
SLDTEXTSTYLE0
 73
     1
 44
1.0
  0
MTEXT
  5
293
330
28A
100
AcDbEntity
  8
0
  6
Continuous
 62
     7
370
    18
100
AcDbMText
 10
127.9093999554
 20
260.9131326403
 30
0.0
 40
3.5
 41
0.0
 71
     1
 72
     1
  1
145
  7
SLDTEXTSTYLE0
 73
     1
 44
1.0
  0
ENDBLK
  5
28C
330
28A
100
AcDbEntity
  8
0
100
AcDbBlockEnd
  0
BLOCK
  5
297
330
296
100
AcDbEntity
  8
0
100
AcDbBlockBegin
  2
_D_1
 70
     0
 10
0.0
 20
0.0
 30
0.0
  3
_D_1
  1

  0
SOLID
  5
299
330
296
100
AcDbEntity
  8
0
  6
Continuous
 62
     7
370
    18
100
AcDbTrace
 10
182.3595559371
 20
214.3878616418
 30
0.0
 11
178.8595559371
 21
214.9263231802
 31
0.0
 12
178.8595559371
 22
213.8494001033
 32
0.0
 13
178.8595559371
 23
213.8494001033
 33
0.0
  0
SOLID
  5
29A
330
296
100
AcDbEntity
  8
0
  6
Continuous
 62
     7
370
    18
100
AcDbTrace
 10
76.3771250974
 20
214.3878616418
 30
0.0
 11
79.8771250974
 21
213.8494001033
 31
0.0
 12
79.8771250974
 22
214.9263231802
 32
0.0
 13
79.8771250974
 23
214.9263231802
 33
0.0
  0
LINE
  5
29B
330
296
100
AcDbEntity
  8
0
  6
Continuous
 62
     7
370
     0
100
AcDbLine
 10
182.3595559371
 20
224.2916732644
 30
0.0
 11
182.3595559371
 21
213.3878616418
 31
0.0
  0
LINE
  5
29C
330
296
100
AcDbEntity
  8
0
  6
Continuous
 62
     7
370
     0
100
AcDbLine
 10
76.3771250974
 20
224.2916732644
 30
0.0
 11
76.3771250974
 21
213.3878616418
 31
0.0
  0
LINE
  5
29D
330
296
100
AcDbEntity
  8
0
  6
Continuous
 62
     7
370
     0
100
AcDbLine
 10
182.3595559371
 20
214.3878616418
 30
0.0
 11
76.3771250974
 21
214.3878616418
 31
0.0
  0
MTEXT
  5
29E
330
296
100
AcDbEntity
  8
0
  6
Continuous
 62
     7
370
    18
100
AcDbMText
 10
122.8064484101
 20
218.899598731
 30
0.0
 40
3.5
 41
0.0
 71
     1
 72
     1
  1
%%c
  7
SLDTEXTSTYLE0
 73
     1
 44
1.0
  0
MTEXT
  5
29F
330
296
100
AcDbEntity
  8
0
  6
Continuous
 62
     7
370
    18
100
AcDbMText
 10
127.9093999554
 20
218.9093210401
 30
0.0
 40
3.5
 41
0.0
 71
     1
 72
     1
  1
106
  7
SLDTEXTSTYLE0
 73
     1
 44
1.0
  0
ENDBLK
  5
298
330
296
100
AcDbEntity
  8
0
100
AcDbBlockEnd
  0
BLOCK
  5
2A3
330
2A2
100
AcDbEntity
  8
0
100
AcDbBlockBegin
  2
_D_2
 70
     0
 10
0.0
 20
0.0
 30
0.0
  3
_D_2
  1

  0
SOLID
  5
2A5
330
2A2
100
AcDbEntity
  8
0
  6
Continuous
 62
     7
370
    18
100
AcDbTrace
 10
211.8683404433
 20
246.391673242
 30
0.0
 11
212.4068019818
 21
249.891673242
 31
0.0
 12
211.3298789048
 22
249.891673242
 32
0.0
 13
211.3298789048
 23
249.891673242
 33
0.0
  0
SOLID
  5
2A6
330
2A2
100
AcDbEntity
  8
0
  6
Continuous
 62
     7
370
    18
100
AcDbTrace
 10
211.8683404433
 20
236.8916732517
 30
0.0
 11
211.3298789048
 21
233.3916732517
 31
0.0
 12
212.4068019818
 22
233.3916732517
 32
0.0
 13
212.4068019818
 23
233.3916732517
 33
0.0
  0
LINE
  5
2A7
330
2A2
100
AcDbEntity
  8
0
  6
Continuous
 62
     7
370
     0
100
AcDbLine
 10
200.4683404448
 20
246.391673242
 30
0.0
 11
212.8683404433
 21
246.391673242
 31
0.0
  0
LINE
  5
2A8
330
2A2
100
AcDbEntity
  8
0
  6
Continuous
 62
     7
370
     0
100
AcDbLine
 10
200.4683404448
 20
236.8916732517
 30
0.0
 11
212.8683404433
 21
236.8916732517
 31
0.0
  0
LINE
  5
2A9
330
2A2
100
AcDbEntity
  8
0
  6
Continuous
 62
     7
370
     0
100
AcDbLine
 10
211.8683404433
 20
246.391673242
 30
0.0
 11
211.8683404433
 21
253.1224424727
 31
0.0
  0
LINE
  5
2AA
330
2A2
100
AcDbEntity
  8
0
  6
Continuous
 62
     7
370
     0
100
AcDbLine
 10
211.8683404433
 20
246.391673242
 30
0.0
 11
211.8683404433
 21
236.8916732517
 31
0.0
  0
LINE
  5
2AB
330
2A2
100
AcDbEntity
  8
0
  6
Continuous
 62
     7
370
     0
100
AcDbLine
 10
211.8683404433
 20
236.8916732517
 30
0.0
 11
211.8683404433
 21
230.1609040209
 31
0.0
  0
MTEXT
  5
2AC
330
2A2
100
AcDbEntity
  8
0
  6
Continuous
 62
     7
370
    18
100
AcDbMText
 10
207.3566031213
 20
238.2996594407
 30
0.0
 40
3.5
 41
0.0
 71
     1
 72
     1
  1
9.5
  7
SLDTEXTSTYLE0
 11
-8.820551857043885E-15
 21
1.0
 31
0.0
 73
     1
 44
1.0
  0
ENDBLK
  5
2A4
330
2A2
100
AcDbEntity
  8
0
100
AcDbBlockEnd
  0
BLOCK
  5
2AF
330
2AE
100
AcDbEntity
  8
0
100
AcDbBlockBegin
  2
_D_3
 70
     0
 10
0.0
 20
0.0
 30
0.0
  3
_D_3
  1

  0
SOLID
  5
2B1
330
2AE
100
AcDbEntity
  8
0
  6
Continuous
 62
     7
370
    18
100
AcDbTrace
 10
221.8683404433
 20
246.391673242
 30
0.0
 11
221.3298789048
 21
242.891673242
 31
0.0
 12
222.4068019818
 22
242.891673242
 32
0.0
 13
222.4068019818
 23
242.891673242
 33
0.0
  0
SOLID
  5
2B2
330
2AE
100
AcDbEntity
  8
0
  6
Continuous
 62
     7
370
    18
100
AcDbTrace
 10
221.8683404433
 20
224.3916732644
 30
0.0
 11
222.4068019818
 21
227.8916732644
 31
0.0
 12
221.3298789048
 22
227.8916732644
 32
0.0
 13
221.3298789048
 23
227.8916732644
 33
0.0
  0
LINE
  5
2B3
330
2AE
100
AcDbEntity
  8
0
  6
Continuous
 62
     7
370
     0
100
AcDbLine
 10
200.4683404448
 20
246.391673242
 30
0.0
 11
222.8683404433
 21
246.391673242
 31
0.0
  0
LINE
  5
2B4
330
2AE
100
AcDbEntity
  8
0
  6
Continuous
 62
     7
370
     0
100
AcDbLine
 10
190.1292166977
 20
224.3916732644
 30
0.0
 11
222.8683404433
 21
224.3916732644
 31
0.0
  0
LINE
  5
2B5
330
2AE
100
AcDbEntity
  8
0
  6
Continuous
 62
     7
370
     0
100
AcDbLine
 10
221.8683404433
 20
246.391673242
 30
0.0
 11
221.8683404433
 21
224.3916732644
 31
0.0
  0
MTEXT
  5
2B6
330
2AE
100
AcDbEntity
  8
0
  6
Continuous
 62
     7
370
    18
100
AcDbMText
 10
217.3566031213
 20
232.7180622083
 30
0.0
 40
3.5
 41
0.0
 71
     1
 72
     1
  1
22
  7
SLDTEXTSTYLE0
 11
-8.820551857043885E-15
 21
1.0
 31
0.0
 73
     1
 44
1.0
  0
ENDBLK
  5
2B0
330
2AE
100
AcDbEntity
  8
0
100
AcDbBlockEnd
  0
ENDSEC
  0
SECTION
  2
ENTITIES
  0
LINE
  5
178
330
1F
100
AcDbEntity
  8
LINIEN-DÜNN
  6
CENTERX2
100
AcDbLine
 10
352.6174545849
 20
46.9080238789
 30
0.0
 11
352.6174545849
 21
39.4621586124
 31
0.0
  0
LINE
  5
179
330
1F
100
AcDbEntity
  8
LINIEN-DÜNN
100
AcDbLine
 10
357.7661698132
 20
46.3720107039
 30
0.0
 11
357.7661698132
 21
39.9353173413
 31
0.0
  0
LINE
  5
17A
330
1F
100
AcDbEntity
  8
LINIEN-DÜNN
100
AcDbLine
 10
364.6059427486
 20
44.7376225767
 30
0.0
 11
364.6059427486
 21
41.5697054685
 31
0.0
  0
LINE
  5
17B
330
1F
100
AcDbEntity
  8
LINIEN-DÜNN
100
AcDbLine
 10
364.6059427486
 20
44.7376225767
 30
0.0
 11
357.7661698132
 21
46.3720107039
 31
0.0
  0
LINE
  5
17C
330
1F
100
AcDbEntity
  8
LINIEN-DÜNN
100
AcDbLine
 10
15.0
 20
198.5
 30
0.0
 11
20.0
 21
198.5
 31
0.0
  0
LINE
  5
17D
330
1F
100
AcDbEntity
  8
LINIEN-DÜNN
100
AcDbLine
 10
12.0
 20
148.5
 30
0.0
 11
0.0
 21
148.5
 31
0.0
  0
LINE
  5
17E
330
1F
100
AcDbEntity
  8
LINIEN-DÜNN
100
AcDbLine
 10
357.7661698132
 20
39.9353173413
 30
0.0
 11
364.6059427486
 21
41.5697054685
 31
0.0
  0
LINE
  5
17F
330
1F
100
AcDbEntity
  8
LINIEN-DÜNN
  6
CENTERX2
100
AcDbLine
 10
348.6240467841
 20
43.1536640226
 30
0.0
 11
356.6108623857
 21
43.1536640226
 31
0.0
  0
LINE
  5
180
330
1F
100
AcDbEntity
  8
LINIEN-DÜNN
  6
CENTERX2
100
AcDbLine
 10
357.1289238876
 20
43.1536640226
 30
0.0
 11
365.6255362296
 21
43.1536640226
 31
0.0
  0
LINE
  5
181
330
1F
100
AcDbEntity
  8
LINIEN-DÜNN
100
AcDbLine
 10
0.0
 20
0.0
 30
0.0
 11
420.0
 21
0.0
 31
0.0
  0
LINE
  5
182
330
1F
100
AcDbEntity
  8
LINIEN-DÜNN
100
AcDbLine
 10
0.0
 20
0.0
 30
0.0
 11
0.0
 21
297.0
 31
0.0
  0
LINE
  5
183
330
1F
100
AcDbEntity
  8
LINIEN-DÜNN
100
AcDbLine
 10
0.0
 20
297.0
 30
0.0
 11
420.0
 21
297.0
 31
0.0
  0
LINE
  5
184
330
1F
100
AcDbEntity
  8
LINIEN-DÜNN
100
AcDbLine
 10
420.0
 20
0.0
 30
0.0
 11
420.0
 21
297.0
 31
0.0
  0
LINE
  5
185
330
1F
100
AcDbEntity
  8
LINIEN-NORMAL
100
AcDbLine
 10
228.0
 20
35.0
 30
0.0
 11
410.0
 21
35.0
 31
0.0
  0
LINE
  5
186
330
1F
100
AcDbEntity
  8
LINIEN-DÜNN
100
AcDbLine
 10
410.0
 20
198.5
 30
0.0
 11
415.0
 21
198.5
 31
0.0
  0
LINE
  5
187
330
1F
100
AcDbEntity
  8
LINIEN-DÜNN
100
AcDbLine
 10
15.0
 20
148.5
 30
0.0
 11
20.0
 21
148.5
 31
0.0
  0
LINE
  5
188
330
1F
100
AcDbEntity
  8
LINIEN-DÜNN
100
AcDbLine
 10
228.0
 20
40.0
 30
0.0
 11
296.6
 21
40.0
 31
0.0
  0
LINE
  5
189
330
1F
100
AcDbEntity
  8
LINIEN-DÜNN
100
AcDbLine
 10
15.0
 20
248.5
 30
0.0
 11
20.0
 21
248.5
 31
0.0
  0
LINE
  5
18A
330
1F
100
AcDbEntity
  8
LINIEN-DICK
100
AcDbLine
 10
20.0
 20
287.0
 30
0.0
 11
20.0
 21
10.0
 31
0.0
  0
LINE
  5
18B
330
1F
100
AcDbEntity
  8
LINIEN-DICK
100
AcDbLine
 10
410.0
 20
287.0
 30
0.0
 11
20.0
 21
287.0
 31
0.0
  0
LINE
  5
18C
330
1F
100
AcDbEntity
  8
LINIEN-DICK
100
AcDbLine
 10
410.0
 20
5.0
 30
0.0
 11
410.0
 21
287.0
 31
0.0
  0
LINE
  5
18D
330
1F
100
AcDbEntity
  8
LINIEN-DICK
100
AcDbLine
 10
20.0
 20
10.0
 30
0.0
 11
415.0
 21
10.0
 31
0.0
  0
LINE
  5
18E
330
1F
100
AcDbEntity
  8
LINIEN-DÜNN
100
AcDbLine
 10
410.0
 20
148.5
 30
0.0
 11
415.0
 21
148.5
 31
0.0
  0
LINE
  5
18F
330
1F
100
AcDbEntity
  8
LINIEN-DÜNN
100
AcDbLine
 10
228.0
 20
50.0
 30
0.0
 11
296.6
 21
50.0
 31
0.0
  0
LINE
  5
190
330
1F
100
AcDbEntity
  8
LINIEN-DÜNN
100
AcDbLine
 10
15.0
 20
98.5
 30
0.0
 11
20.0
 21
98.5
 31
0.0
  0
LINE
  5
191
330
1F
100
AcDbEntity
  8
LINIEN-DÜNN
100
AcDbLine
 10
296.6
 20
45.0
 30
0.0
 11
228.0
 21
45.0
 31
0.0
  0
LINE
  5
192
330
1F
100
AcDbEntity
  8
LINIEN-DÜNN
100
AcDbLine
 10
65.0
 20
292.0
 30
0.0
 11
65.0
 21
287.0
 31
0.0
  0
LINE
  5
193
330
1F
100
AcDbEntity
  8
LINIEN-DÜNN
100
AcDbLine
 10
230.0
 20
292.0
 30
0.0
 11
230.0
 21
297.0
 31
0.0
  0
LINE
  5
194
330
1F
100
AcDbEntity
  8
LINIEN-NORMAL
100
AcDbLine
 10
296.6
 20
55.0
 30
0.0
 11
296.6
 21
35.0
 31
0.0
  0
LINE
  5
195
330
1F
100
AcDbEntity
  8
LINIEN-DÜNN
100
AcDbLine
 10
410.0
 20
98.5
 30
0.0
 11
415.0
 21
98.5
 31
0.0
  0
LINE
  5
196
330
1F
100
AcDbEntity
  8
VORLAGE_BEMASSUNG
100
AcDbLine
 10
230.0
 20
5.0
 30
0.0
 11
230.0
 21
0.0
 31
0.0
  0
LINE
  5
197
330
1F
100
AcDbEntity
  8
LINIEN-DÜNN
100
AcDbLine
 10
125.0
 20
292.0
 30
0.0
 11
125.0
 21
297.0
 31
0.0
  0
LINE
  5
198
330
1F
100
AcDbEntity
  8
LINIEN-DÜNN
100
AcDbLine
 10
125.0
 20
5.0
 30
0.0
 11
125.0
 21
0.0
 31
0.0
  0
LINE
  5
199
330
1F
100
AcDbEntity
  8
LINIEN-NORMAL
100
AcDbLine
 10
410.0
 20
55.0
 30
0.0
 11
228.0
 21
55.0
 31
0.0
  0
LINE
  5
19A
330
1F
100
AcDbEntity
  8
LINIEN-DÜNN
100
AcDbLine
 10
228.0
 20
55.0
 30
0.0
 11
410.0
 21
55.0
 31
0.0
  0
LINE
  5
19B
330
1F
100
AcDbEntity
  8
LINIEN-DÜNN
100
AcDbLine
 10
410.0
 20
55.0
 30
0.0
 11
228.0
 21
55.0
 31
0.0
  0
LINE
  5
19C
330
1F
100
AcDbEntity
  8
LINIEN-DÜNN
100
AcDbLine
 10
268.0
 20
76.5
 30
0.0
 11
268.0
 21
55.0
 31
0.0
  0
LINE
  5
19D
330
1F
100
AcDbEntity
  8
LINIEN-DÜNN
100
AcDbLine
 10
271.6
 20
55.0
 30
0.0
 11
271.6
 21
40.0
 31
0.0
  0
LINE
  5
19E
330
1F
100
AcDbEntity
  8
LINIEN-DÜNN
100
AcDbLine
 10
247.0
 20
55.0
 30
0.0
 11
247.0
 21
35.0
 31
0.0
  0
LINE
  5
19F
330
1F
100
AcDbEntity
  8
LINIEN-DICK
100
AcDbLine
 10
228.0
 20
76.5
 30
0.0
 11
228.0
 21
10.0
 31
0.0
  0
LINE
  5
1A0
330
1F
100
AcDbEntity
  8
LINIEN-DÜNN
100
AcDbLine
 10
15.0
 20
292.0
 30
0.0
 11
415.0
 21
292.0
 31
0.0
  0
LINE
  5
1A1
330
1F
100
AcDbEntity
  8
LINIEN-DÜNN
100
AcDbLine
 10
228.0
 20
65.75
 30
0.0
 11
310.0
 21
65.75
 31
0.0
  0
LINE
  5
1A2
330
1F
100
AcDbEntity
  8
LINIEN-DICK
100
AcDbLine
 10
228.0
 20
76.5
 30
0.0
 11
410.0
 21
76.5
 31
0.0
  0
LINE
  5
1A3
330
1F
100
AcDbEntity
  8
LINIEN-DÜNN
100
AcDbLine
 10
15.0
 20
48.5
 30
0.0
 11
20.0
 21
48.5
 31
0.0
  0
LINE
  5
1A4
330
1F
100
AcDbEntity
  8
LINIEN-DÜNN
100
AcDbLine
 10
410.0
 20
48.5
 30
0.0
 11
415.0
 21
48.5
 31
0.0
  0
LINE
  5
1A5
330
1F
100
AcDbEntity
  8
LINIEN-DÜNN
100
AcDbLine
 10
332.6610845472
 20
20.0
 30
0.0
 11
332.6610845472
 21
10.0
 31
0.0
  0
LINE
  5
1A6
330
1F
100
AcDbEntity
  8
LINIEN-DÜNN
100
AcDbLine
 10
410.0
 20
248.5
 30
0.0
 11
415.0
 21
248.5
 31
0.0
  0
LINE
  5
1A7
330
1F
100
AcDbEntity
  8
LINIEN-DÜNN
100
AcDbLine
 10
65.0
 20
10.0
 30
0.0
 11
65.0
 21
5.0
 31
0.0
  0
LINE
  5
1A8
330
1F
100
AcDbEntity
  8
LINIEN-DÜNN
100
AcDbLine
 10
115.0
 20
10.0
 30
0.0
 11
115.0
 21
5.0
 31
0.0
  0
LINE
  5
1A9
330
1F
100
AcDbEntity
  8
LINIEN-DÜNN
100
AcDbLine
 10
115.0
 20
292.0
 30
0.0
 11
115.0
 21
287.0
 31
0.0
  0
LINE
  5
1AA
330
1F
100
AcDbEntity
  8
LINIEN-DÜNN
100
AcDbLine
 10
165.0
 20
10.0
 30
0.0
 11
165.0
 21
5.0
 31
0.0
  0
LINE
  5
1AB
330
1F
100
AcDbEntity
  8
LINIEN-DÜNN
100
AcDbLine
 10
165.0
 20
292.0
 30
0.0
 11
165.0
 21
287.0
 31
0.0
  0
LINE
  5
1AC
330
1F
100
AcDbEntity
  8
LINIEN-DÜNN
100
AcDbLine
 10
215.0
 20
10.0
 30
0.0
 11
215.0
 21
5.0
 31
0.0
  0
LINE
  5
1AD
330
1F
100
AcDbEntity
  8
LINIEN-DÜNN
100
AcDbLine
 10
215.0
 20
292.0
 30
0.0
 11
215.0
 21
287.0
 31
0.0
  0
LINE
  5
1AE
330
1F
100
AcDbEntity
  8
LINIEN-DÜNN
100
AcDbLine
 10
265.0
 20
10.0
 30
0.0
 11
265.0
 21
5.0
 31
0.0
  0
LINE
  5
1AF
330
1F
100
AcDbEntity
  8
LINIEN-DÜNN
100
AcDbLine
 10
265.0
 20
292.0
 30
0.0
 11
265.0
 21
287.0
 31
0.0
  0
LINE
  5
1B0
330
1F
100
AcDbEntity
  8
LINIEN-DÜNN
100
AcDbLine
 10
347.6610845472
 20
20.0
 30
0.0
 11
347.6610845472
 21
10.0
 31
0.0
  0
LINE
  5
1B1
330
1F
100
AcDbEntity
  8
LINIEN-DÜNN
100
AcDbLine
 10
362.6610845472
 20
20.0
 30
0.0
 11
362.6610845472
 21
10.0
 31
0.0
  0
LINE
  5
1B2
330
1F
100
AcDbEntity
  8
LINIEN-NORMAL
100
AcDbLine
 10
327.6610845472
 20
10.0
 30
0.0
 11
327.6610845472
 21
55.0
 31
0.0
  0
LINE
  5
1B3
330
1F
100
AcDbEntity
  8
LINIEN-DÜNN
100
AcDbLine
 10
20.0
 20
292.0
 30
0.0
 11
20.0
 21
297.0
 31
0.0
  0
LINE
  5
1B4
330
1F
100
AcDbEntity
  8
LINIEN-DÜNN
100
AcDbLine
 10
20.0
 20
5.0
 30
0.0
 11
20.0
 21
0.0
 31
0.0
  0
LINE
  5
1B5
330
1F
100
AcDbEntity
  8
LINIEN-DÜNN
100
AcDbLine
 10
315.0
 20
10.0
 30
0.0
 11
315.0
 21
5.0
 31
0.0
  0
LINE
  5
1B6
330
1F
100
AcDbEntity
  8
LINIEN-DÜNN
100
AcDbLine
 10
315.0
 20
292.0
 30
0.0
 11
315.0
 21
287.0
 31
0.0
  0
LINE
  5
1B7
330
1F
100
AcDbEntity
  8
LINIEN-DÜNN
100
AcDbLine
 10
365.0
 20
10.0
 30
0.0
 11
365.0
 21
5.0
 31
0.0
  0
LINE
  5
1B8
330
1F
100
AcDbEntity
  8
LINIEN-DÜNN
100
AcDbLine
 10
365.0
 20
292.0
 30
0.0
 11
365.0
 21
287.0
 31
0.0
  0
LINE
  5
1B9
330
1F
100
AcDbEntity
  8
LINIEN-DÜNN
100
AcDbLine
 10
15.0
 20
292.0
 30
0.0
 11
15.0
 21
5.0
 31
0.0
  0
LINE
  5
1BA
330
1F
100
AcDbEntity
  8
LINIEN-DÜNN
100
AcDbLine
 10
15.0
 20
5.0
 30
0.0
 11
415.0
 21
5.0
 31
0.0
  0
LINE
  5
1BB
330
1F
100
AcDbEntity
  8
LINIEN-DÜNN
100
AcDbLine
 10
415.0
 20
292.0
 30
0.0
 11
415.0
 21
5.0
 31
0.0
  0
LINE
  5
1BC
330
1F
100
AcDbEntity
  8
LINIEN-DÜNN
100
AcDbLine
 10
347.6610845472
 20
44.213444
 30
0.0
 11
327.6610845472
 21
44.213444
 31
0.0
  0
LINE
  5
1BD
330
1F
100
AcDbEntity
  8
LINIEN-DÜNN
100
AcDbLine
 10
347.6610845472
 20
35.0
 30
0.0
 11
347.6610845472
 21
55.0
 31
0.0
  0
LINE
  5
1BE
330
1F
100
AcDbEntity
  8
LINIEN-DÜNN
100
AcDbLine
 10
370.057188
 20
55.012032
 30
0.0
 11
370.057188
 21
35.0
 31
0.0
  0
LINE
  5
1BF
330
1F
100
AcDbEntity
  8
LINIEN-DÜNN
100
AcDbLine
 10
398.0
 20
35.0
 30
0.0
 11
398.0
 21
20.0
 31
0.0
  0
LINE
  5
1C0
330
1F
100
AcDbEntity
  8
LINIEN-DÜNN
100
AcDbLine
 10
410.0
 20
15.0
 30
0.0
 11
327.6610845472
 21
15.0
 31
0.0
  0
LINE
  5
1C1
330
1F
100
AcDbEntity
  8
LINIEN-DÜNN
100
AcDbLine
 10
327.6610845472
 20
20.0
 30
0.0
 11
410.0
 21
20.0
 31
0.0
  0
LINE
  5
1C2
330
1F
100
AcDbEntity
  8
LINIEN-DÜNN
100
AcDbLine
 10
341.485486
 20
20.0
 30
0.0
 11
341.485486
 21
27.564675
 31
0.0
  0
LINE
  5
1C3
330
1F
100
AcDbEntity
  8
LINIEN-NORMAL
100
AcDbLine
 10
310.0
 20
76.5
 30
0.0
 11
310.0
 21
55.0
 31
0.0
  0
CIRCLE
  5
1C4
330
1F
100
AcDbEntity
  8
LINIEN-DÜNN
100
AcDbCircle
 10
11.0
 20
108.5
 30
0.0
 40
2.750000000000001
  0
CIRCLE
  5
1C5
330
1F
100
AcDbEntity
  8
LINIEN-DÜNN
100
AcDbCircle
 10
11.0
 20
188.5
 30
0.0
 40
2.750000000000001
  0
CIRCLE
  5
1C6
330
1F
100
AcDbEntity
  8
LINIEN-DÜNN
100
AcDbCircle
 10
352.6174545849
 20
43.1536640226
 30
0.0
 40
3.218346681300138
  0
CIRCLE
  5
1C7
330
1F
100
AcDbEntity
  8
LINIEN-DÜNN
100
AcDbCircle
 10
352.6174545849
 20
43.1536640226
 30
0.0
 40
1.583958554121555
  0
INSERT
  5
1C8
330
1F
100
AcDbEntity
  8
0
  6
Continuous
 62
     7
100
AcDbBlockReference
  2
Allg-Toleranz-mittel
 10
20.0
 20
10.0
 30
0.0
  0
INSERT
  5
1C9
330
1F
100
AcDbEntity
  8
0
  6
Continuous
 62
     7
100
AcDbBlockReference
  2
ACO-Logo
 10
314.3510726297
 20
57.6366106772
 30
0.0
  0
POINT
  5
1CA
330
1F
100
AcDbEntity
  8
VORLAGE_BEMASSUNG
100
AcDbPoint
 10
0.0
 20
0.0
 30
0.0
  0
POINT
  5
1CB
330
1F
100
AcDbEntity
  8
VORLAGE_BEMASSUNG
100
AcDbPoint
 10
410.0
 20
10.0
 30
0.0
  0
MTEXT
  5
1CC
330
1F
100
AcDbEntity
  8
VORLAGE_TEXT
100
AcDbMText
 10
17.7046943114
 20
124.8017866468
 30
0.0
 40
2.0
 41
0.0
 71
     2
 72
     1
  1
D
  7
SLDTEXTSTYLE0
 73
     1
 44
1.0
  0
MTEXT
  5
1CD
330
1F
100
AcDbEntity
  8
VORLAGE_TEXT
100
AcDbMText
 10
17.5962322413
 20
174.7261854936
 30
0.0
 40
2.0
 41
0.0
 71
     2
 72
     1
  1
C
  7
SLDTEXTSTYLE0
 73
     1
 44
1.0
  0
MTEXT
  5
1CE
330
1F
100
AcDbEntity
  8
VORLAGE_TEXT
100
AcDbMText
 10
17.5516905072
 20
224.4926420442
 30
0.0
 40
2.0
 41
0.0
 71
     2
 72
     1
  1
B
  7
SLDTEXTSTYLE0
 73
     1
 44
1.0
  0
MTEXT
  5
1CF
330
1F
100
AcDbEntity
  8
VORLAGE_TEXT
100
AcDbMText
 10
290.0344258799
 20
290.5428789914
 30
0.0
 40
2.0
 41
0.0
 71
     2
 72
     1
  1
6
  7
SLDTEXTSTYLE0
 73
     1
 44
1.0
  0
MTEXT
  5
1D0
330
1F
100
AcDbEntity
  8
VORLAGE_TEXT
100
AcDbMText
 10
240.0417859812
 20
290.6369260235
 30
0.0
 40
2.0
 41
0.0
 71
     2
 72
     1
  1
5
  7
SLDTEXTSTYLE0
 73
     1
 44
1.0
  0
MTEXT
  5
1D1
330
1F
100
AcDbEntity
  8
VORLAGE_TEXT
100
AcDbMText
 10
190.0300404524
 20
290.6343268032
 30
0.0
 40
2.0
 41
0.0
 71
     2
 72
     1
  1
4
  7
SLDTEXTSTYLE0
 73
     1
 44
1.0
  0
MTEXT
  5
1D2
330
1F
100
AcDbEntity
  8
VORLAGE_TEXT
100
AcDbMText
 10
140.0165868337
 20
290.6378887952
 30
0.0
 40
2.0
 41
0.0
 71
     2
 72
     1
  1
3
  7
SLDTEXTSTYLE0
 73
     1
 44
1.0
  0
MTEXT
  5
1D3
330
1F
100
AcDbEntity
  8
VORLAGE_TEXT
100
AcDbMText
 10
90.033223
 20
290.5566702875
 30
0.0
 40
2.0
 41
0.0
 71
     2
 72
     1
  1
2
  7
SLDTEXTSTYLE0
 73
     1
 44
1.0
  0
MTEXT
  5
1D4
330
1F
100
AcDbEntity
  8
VORLAGE_TEXT
100
AcDbMText
 10
40.0509551097
 20
290.5530165805
 30
0.0
 40
2.0
 41
0.0
 71
     2
 72
     1
  1
1
  7
SLDTEXTSTYLE0
 73
     1
 44
1.0
  0
MTEXT
  5
1D5
330
1F
100
AcDbEntity
  8
VORLAGE_TEXT
100
AcDbMText
 10
17.5609786315
 20
271.2966048816
 30
0.0
 40
2.0
 41
0.0
 71
     2
 72
     1
  1
A
  7
SLDTEXTSTYLE0
 73
     1
 44
1.0
  0
MTEXT
  5
1D6
330
1F
100
AcDbEntity
  8
VORLAGE_TEXT
100
AcDbMText
 10
89.9333968896
 20
8.5904490253
 30
0.0
 40
2.0
 41
0.0
 71
     2
 72
     1
  1
2
  7
SLDTEXTSTYLE0
 73
     1
 44
1.0
  0
MTEXT
  5
1D7
330
1F
100
AcDbEntity
  8
VORLAGE_TEXT
100
AcDbMText
 10
39.9009486579
 20
8.6623118453
 30
0.0
 40
2.0
 41
0.0
 71
     2
 72
     1
  1
1
  7
SLDTEXTSTYLE0
 73
     1
 44
1.0
  0
MTEXT
  5
1D8
330
1F
100
AcDbEntity
  8
VORLAGE_TEXT
100
AcDbMText
 10
190.0227230239
 20
8.7073169286
 30
0.0
 40
2.0
 41
0.0
 71
     2
 72
     1
  1
4
  7
SLDTEXTSTYLE0
 73
     1
 44
1.0
  0
MTEXT
  5
1D9
330
1F
100
AcDbEntity
  8
VORLAGE_TEXT
100
AcDbMText
 10
140.0453427777
 20
8.5647154541
 30
0.0
 40
2.0
 41
0.0
 71
     2
 72
     1
  1
3
  7
SLDTEXTSTYLE0
 73
     1
 44
1.0
  0
MTEXT
  5
1DA
330
1F
100
AcDbEntity
  8
VORLAGE_TEXT
100
AcDbMText
 10
239.8749782531
 20
8.5637526825
 30
0.0
 40
2.0
 41
0.0
 71
     2
 72
     1
  1
5
  7
SLDTEXTSTYLE0
 73
     1
 44
1.0
  0
MTEXT
  5
1DB
330
1F
100
AcDbEntity
  8
VORLAGE_TEXT
100
AcDbMText
 10
412.6717254925
 20
224.51208263
 30
0.0
 40
2.0
 41
0.0
 71
     2
 72
     1
  1
B
  7
SLDTEXTSTYLE0
 73
     1
 44
1.0
  0
MTEXT
  5
1DC
330
1F
100
AcDbEntity
  8
VORLAGE_TEXT
100
AcDbMText
 10
412.5951211154
 20
271.2798202564
 30
0.0
 40
2.0
 41
0.0
 71
     2
 72
     1
  1
A
  7
SLDTEXTSTYLE0
 73
     1
 44
1.0
  0
MTEXT
  5
1DD
330
1F
100
AcDbEntity
  8
VORLAGE_TEXT
100
AcDbMText
 10
412.6178948679
 20
174.7279841048
 30
0.0
 40
2.0
 41
0.0
 71
     2
 72
     1
  1
C
  7
SLDTEXTSTYLE0
 73
     1
 44
1.0
  0
MTEXT
  5
1DE
330
1F
100
AcDbEntity
  8
VORLAGE_TEXT
100
AcDbMText
 10
340.0216466634
 20
290.5954278102
 30
0.0
 40
2.0
 41
0.0
 71
     2
 72
     1
  1
7
  7
SLDTEXTSTYLE0
 73
     1
 44
1.0
  0
MTEXT
  5
1DF
330
1F
100
AcDbEntity
  8
VORLAGE_TEXT
100
AcDbMText
 10
390.037657264
 20
290.6215496941
 30
0.0
 40
2.0
 41
0.0
 71
     2
 72
     1
  1
8
  7
SLDTEXTSTYLE0
 73
     1
 44
1.0
  0
MTEXT
  5
1E0
330
1F
100
AcDbEntity
  8
VORLAGE_TEXT
100
AcDbMText
 10
17.6897935208
 20
74.7267628143
 30
0.0
 40
2.0
 41
0.0
 71
     2
 72
     1
  1
E
  7
SLDTEXTSTYLE0
 73
     1
 44
1.0
  0
MTEXT
  5
1E1
330
1F
100
AcDbEntity
  8
VORLAGE_TEXT
100
AcDbMText
 10
17.5624430126
 20
27.773321616
 30
0.0
 40
2.0
 41
0.0
 71
     2
 72
     1
  1
F
  7
SLDTEXTSTYLE0
 73
     1
 44
1.0
  0
MTEXT
  5
1E2
330
1F
100
AcDbEntity
  8
VORLAGE_TEXT
100
AcDbMText
 10
339.8003474583
 20
8.7205095051
 30
0.0
 40
2.0
 41
0.0
 71
     2
 72
     1
  1
7
  7
SLDTEXTSTYLE0
 73
     1
 44
1.0
  0
MTEXT
  5
1E3
330
1F
100
AcDbEntity
  8
VORLAGE_TEXT
100
AcDbMText
 10
289.7886477179
 20
8.6884673623
 30
0.0
 40
2.0
 41
0.0
 71
     2
 72
     1
  1
6
  7
SLDTEXTSTYLE0
 73
     1
 44
1.0
  0
MTEXT
  5
1E4
330
1F
100
AcDbEntity
  8
VORLAGE_TEXT
100
AcDbMText
 10
412.5160699095
 20
74.5096307526
 30
0.0
 40
2.0
 41
0.0
 71
     2
 72
     1
  1
E
  7
SLDTEXTSTYLE0
 73
     1
 44
1.0
  0
MTEXT
  5
1E5
330
1F
100
AcDbEntity
  8
VORLAGE_TEXT
100
AcDbMText
 10
412.5921521365
 20
124.4517683275
 30
0.0
 40
2.0
 41
0.0
 71
     2
 72
     1
  1
D
  7
SLDTEXTSTYLE0
 73
     1
 44
1.0
  0
MTEXT
  5
1E6
330
1F
100
AcDbEntity
  8
TEXT-DEUTSCH
100
AcDbMText
 10
411.7952690469
 20
41.8036015182
 30
0.0
 40
1.8
 41
0.0
 71
     3
 72
     1
  1
Plotdatum: 25.01.2021
  7
SLDTEXTSTYLE0
 11
-3.269436733918102E-15
 21
1.0
 31
0.0
 73
     1
 44
1.0
  0
MTEXT
  5
1E7
330
1F
100
AcDbEntity
  8
VORLAGE_TEXT
100
AcDbMText
 10
412.557933251
 20
8.2549718046
 30
0.0
 40
1.8
 41
0.0
 71
     2
 72
     1
  1
A3
  7
SLDTEXTSTYLE0
 73
     1
 44
1.0
  0
MTEXT
  5
1E8
330
1F
100
AcDbEntity
  8
VORLAGE_TEXT
100
AcDbMText
 10
390.369604279
 20
8.3847467643
 30
0.0
 40
1.8
 41
0.0
 71
     2
 72
     1
  1
CAD-System: SolidWorks
  7
SLDTEXTSTYLE0
 73
     1
 44
1.0
  0
MTEXT
  5
1E9
330
1F
100
AcDbEntity
  8
TEXT
100
AcDbMText
 10
403.9760673444
 20
28.4394692021
 30
0.0
 40
5.0
 41
0.0
 71
     2
 72
     1
  1
-
  7
SLDTEXTSTYLE0
 73
     1
 44
1.0
  0
MTEXT
  5
1EA
330
1F
100
AcDbEntity
  8
TEXT
100
AcDbMText
 10
249.556836311
 20
38.5581729516
 30
0.0
 40
2.0
 41
0.0
 71
     1
 72
     1
  1
Freigegeben
  7
SLDTEXTSTYLE0
 73
     1
 44
1.0
  0
MTEXT
  5
1EB
330
1F
100
AcDbEntity
  8
TEXT
100
AcDbMText
 10
284.1032088477
 20
43.5473338598
 30
0.0
 40
2.0
 41
0.0
 71
     2
 72
     1
  1
AB
  7
SLDTEXTSTYLE0
 73
     1
 44
1.0
  0
MTEXT
  5
1EC
330
1F
100
AcDbEntity
  8
TEXT
100
AcDbMText
 10
249.5284668163
 20
43.5603133928
 30
0.0
 40
2.0
 41
0.0
 71
     1
 72
     1
  1
25.01.2021
  7
SLDTEXTSTYLE0
 73
     1
 44
1.0
  0
MTEXT
  5
1ED
330
1F
100
AcDbEntity
  8
TEXT
100
AcDbMText
 10
284.1309088133
 20
48.5138972561
 30
0.0
 40
2.0
 41
0.0
 71
     2
 72
     1
  1
AB
  7
SLDTEXTSTYLE0
 73
     1
 44
1.0
  0
MTEXT
  5
1EE
330
1F
100
AcDbEntity
  8
TEXT
100
AcDbMText
 10
249.5284668163
 20
48.4989062069
 30
0.0
 40
2.0
 41
0.0
 71
     1
 72
     1
  1
25.01.2021
  7
SLDTEXTSTYLE0
 73
     1
 44
1.0
  0
MTEXT
  5
1EF
330
1F
100
AcDbEntity
  8
0
  6
Continuous
 62
     7
370
     0
100
AcDbMText
 10
370.655574235
 20
38.8723054925
 30
0.0
 40
1.5
 41
0.0
 71
     1
 72
     1
  1
Copyright reserved! © ACO Passavant AG
  7
SLDTEXTSTYLE0
 73
     1
 44
1.0
  0
INSERT
  5
1F8
330
1F
100
AcDbEntity
  8
0
  6
Continuous
 62
     7
370
     0
100
AcDbBlockReference
  2
SW_NOTE_0_21
 10
372.2203831445
 20
51.2202922854
 30
0.0
  0
MTEXT
  5
1F9
330
1F
100
AcDbEntity
  8
TEXT
100
AcDbMText
 10
364.9468572407
 20
18.4594173137
 30
0.0
 40
2.0
 41
0.0
 71
     1
 72
     1
  1
Erstausgabe
  7
SLDTEXTSTYLE0
 73
     1
 44
1.0
  0
MTEXT
  5
1FA
330
1F
100
AcDbEntity
  8
TEXT
100
AcDbMText
 10
330.2295005021
 20
18.524501801
 30
0.0
 40
2.0
 41
0.0
 71
     2
 72
     1
  1
-
  7
SLDTEXTSTYLE0
 73
     1
 44
1.0
  0
MTEXT
  5
1FB
330
1F
100
AcDbEntity
  8
VORLAGE_TEXT
100
AcDbMText
 10
311.764909851
 20
46.3490312465
 30
0.0
 40
5.0
 41
0.0
 71
     2
 72
     1
  1
1:1
  7
SLDTEXTSTYLE0
 73
     1
 44
1.0
  0
MTEXT
  5
1FC
330
1F
100
AcDbEntity
  8
VORLAGE_TEXT
100
AcDbMText
 10
230.1851195342
 20
38.7793829468
 30
0.0
 40
2.0
 41
0.0
 71
     1
 72
     1
  1
Status:
  7
SLDTEXTSTYLE0
 73
     1
 44
1.0
  0
MTEXT
  5
1FD
330
1F
100
AcDbEntity
  8
TEXT
100
AcDbMText
 10
344.926838705
 20
28.2772828851
 30
0.0
 40
5.0
 41
0.0
 71
     1
 72
     1
  1
E2003
  7
SLDTEXTSTYLE0
 73
     1
 44
1.0
  0
MTEXT
  5
1FE
330
1F
100
AcDbEntity
  8
TEXT
100
AcDbMText
 10
231.1132118803
 20
14.9211049657
 30
0.0
 40
2.5
 41
0.0
 71
     1
 72
     1
  1
Art. Nr.: E2003
  7
SLDTEXTSTYLE0
 73
     1
 44
1.0
  0
MTEXT
  5
1FF
330
1F
100
AcDbEntity
  8
TEXT
100
AcDbMText
 10
231.1159560181
 20
33.0904969858
 30
0.0
 40
2.5
 41
0.0
 71
     1
 72
     1
  1
Haustechnik
  7
SLDTEXTSTYLE0
 73
     1
 44
1.0
  0
MTEXT
  5
200
330
1F
100
AcDbEntity
  8
TEXT
100
AcDbMText
 10
231.1475981734
 20
28.0307932366
 30
0.0
 40
3.5
 41
0.0
 71
     1
 72
     1
  1
Dichtung zu Gully EG150
  7
SLDTEXTSTYLE0
 73
     1
 44
1.0
  0
MTEXT
  5
201
330
1F
100
AcDbEntity
  8
VORLAGE_TEXT
100
AcDbMText
 10
348.2746465368
 20
53.819119072
 30
0.0
 40
2.0
 41
0.0
 71
     1
 72
     1
  1
Projektion: ISO-E
  7
SLDTEXTSTYLE0
 73
     1
 44
1.0
  0
MTEXT
  5
202
330
1F
100
AcDbEntity
  8
TEXT
100
AcDbMText
 10
337.5723966855
 20
49.3670227094
 30
0.0
 40
2.5
 41
0.0
 71
     2
 72
     1
  1
Millimeter
  7
SLDTEXTSTYLE0
 73
     1
 44
1.0
  0
MTEXT
  5
203
330
1F
100
AcDbEntity
  8
VORLAGE_TEXT
100
AcDbMText
 10
337.5698777421
 20
53.855374072
 30
0.0
 40
2.0
 41
0.0
 71
     2
 72
     1
  1
Masseinheit:
  7
SLDTEXTSTYLE0
 73
     1
 44
1.0
  0
MTEXT
  5
204
330
1F
100
AcDbEntity
  8
VORLAGE_TEXT
100
AcDbMText
 10
337.5801990186
 20
43.5452078816
 30
0.0
 40
2.0
 41
0.0
 71
     2
 72
     1
  1
Blatt / Anz.:
  7
SLDTEXTSTYLE0
 73
     1
 44
1.0
  0
MTEXT
  5
205
330
1F
100
AcDbEntity
  8
VORLAGE_TEXT
100
AcDbMText
 10
329.2895578243
 20
28.4139191092
 30
0.0
 40
5.0
 41
0.0
 71
     1
 72
     1
  1
CH
  7
SLDTEXTSTYLE0
 73
     1
 44
1.0
  0
MTEXT
  5
206
330
1F
100
AcDbEntity
  8
VORLAGE_TEXT
100
AcDbMText
 10
330.40704
 20
33.692638072
 30
0.0
 40
2.0
 41
0.0
 71
     1
 72
     1
  1
Zeichnung Nr.:
  7
SLDTEXTSTYLE0
 73
     1
 44
1.0
  0
MTEXT
  5
207
330
1F
100
AcDbEntity
  8
VORLAGE_TEXT
100
AcDbMText
 10
269.897953
 20
75.161075072
 30
0.0
 40
2.0
 41
0.0
 71
     1
 72
     1
  1
Gewicht:
  7
SLDTEXTSTYLE0
 73
     1
 44
1.0
  0
MTEXT
  5
208
330
1F
100
AcDbEntity
  8
VORLAGE_TEXT
100
AcDbMText
 10
230.0
 20
64.542328072
 30
0.0
 40
2.0
 41
0.0
 71
     1
 72
     1
  1
zul. Abweichung:
  7
SLDTEXTSTYLE0
 73
     1
 44
1.0
  0
MTEXT
  5
209
330
1F
100
AcDbEntity
  8
VORLAGE_TEXT
100
AcDbMText
 10
269.612607
 20
64.542328072
 30
0.0
 40
2.0
 41
0.0
 71
     1
 72
     1
  1
Oberfläche:
  7
SLDTEXTSTYLE0
 73
     1
 44
1.0
  0
MTEXT
  5
20A
330
1F
100
AcDbEntity
  8
VORLAGE_TEXT
100
AcDbMText
 10
230.261411
 20
43.4433838912
 30
0.0
 40
2.0
 41
0.0
 71
     1
 72
     1
  1
Freigegeben:
  7
SLDTEXTSTYLE0
 73
     1
 44
1.0
  0
MTEXT
  5
20B
330
1F
100
AcDbEntity
  8
VORLAGE_TEXT
100
AcDbMText
 10
230.0
 20
75.161075072
 30
0.0
 40
2.0
 41
0.0
 71
     1
 72
     1
  1
Werkstoff:
  7
SLDTEXTSTYLE0
 73
     1
 44
1.0
  0
MTEXT
  5
20C
330
1F
100
AcDbEntity
  8
VORLAGE_TEXT
100
AcDbMText
 10
254.035545
 20
53.129475072
 30
0.0
 40
2.0
 41
0.0
 71
     1
 72
     1
  1
Datum:
  7
SLDTEXTSTYLE0
 73
     1
 44
1.0
  0
MTEXT
  5
20D
330
1F
100
AcDbEntity
  8
VORLAGE_TEXT
100
AcDbMText
 10
279.934928
 20
53.136060072
 30
0.0
 40
2.0
 41
0.0
 71
     1
 72
     1
  1
Name:
  7
SLDTEXTSTYLE0
 73
     1
 44
1.0
  0
MTEXT
  5
20E
330
1F
100
AcDbEntity
  8
VORLAGE_TEXT
100
AcDbMText
 10
312.068705406
 20
53.881591072
 30
0.0
 40
2.0
 41
0.0
 71
     2
 72
     1
  1
Massstab:
  7
SLDTEXTSTYLE0
 73
     1
 44
1.0
  0
MTEXT
  5
20F
330
1F
100
AcDbEntity
  8
VORLAGE_TEXT
100
AcDbMText
 10
403.9552944035
 20
33.324874072
 30
0.0
 40
2.0
 41
0.0
 71
     2
 72
     1
  1
Index:
  7
SLDTEXTSTYLE0
 73
     1
 44
1.0
  0
MTEXT
  5
210
330
1F
100
AcDbEntity
  8
VORLAGE_TEXT
100
AcDbMText
 10
230.261411
 20
48.4499477886
 30
0.0
 40
2.0
 41
0.0
 71
     1
 72
     1
  1
Erstellt:
  7
SLDTEXTSTYLE0
 73
     1
 44
1.0
  0
MTEXT
  5
211
330
1F
100
AcDbEntity
  8
VORLAGE_TEXT
100
AcDbMText
 10
337.6348165843
 20
39.869706576
 30
0.0
 40
2.5
 41
0.0
 71
     2
 72
     1
  1
1 / 1
  7
SLDTEXTSTYLE2
 73
     1
 44
1.0
  0
MTEXT
  5
212
330
1F
100
AcDbEntity
  8
TEXT
100
AcDbMText
 10
269.612607
 20
60.8119428599
 30
0.0
 40
3.0
 41
0.0
 71
     1
 72
     1
  1
DIN ISO 1302
  7
SLDTEXTSTYLE0
 73
     1
 44
1.0
  0
MTEXT
  5
213
330
1F
100
AcDbEntity
  8
TEXT
100
AcDbMText
 10
230.0
 20
60.8119428599
 30
0.0
 40
3.0
 41
0.0
 71
     1
 72
     1
  1
Norm
  7
SLDTEXTSTYLE0
 73
     1
 44
1.0
  0
MTEXT
  5
214
330
1F
100
AcDbEntity
  8
TEXT
100
AcDbMText
 10
269.612607
 20
71.2121947186
 30
0.0
 40
3.0
 41
0.0
 71
     1
 72
     1
  1
0.09 kg
  7
SLDTEXTSTYLE0
 73
     1
 44
1.0
  0
MTEXT
  5
215
330
1F
100
AcDbEntity
  8
TEXT
100
AcDbMText
 10
230.0
 20
71.2121947186
 30
0.0
 40
3.0
 41
0.0
 71
     1
 72
     1
  1
TPE
  7
SLDTEXTSTYLE0
 73
     1
 44
1.0
  0
CIRCLE
  5
216
330
1F
100
AcDbEntity
  8
0
  6
Continuous
 62
     7
370
    25
100
AcDbCircle
 10
129.3683405172
 20
119.7729310345
 30
0.0
 40
70.99999992757981
  0
CIRCLE
  5
217
330
1F
100
AcDbEntity
  8
0
  6
Continuous
 62
     7
370
    25
100
AcDbCircle
 10
129.3683405172
 20
119.7729310345
 30
0.0
 40
57.99999994083982
  0
CIRCLE
  5
218
330
1F
100
AcDbEntity
  8
0
  6
Continuous
 62
     7
370
    25
100
AcDbCircle
 10
129.3683405172
 20
119.7729310345
 30
0.0
 40
72.49999992605012
  0
CIRCLE
  5
219
330
1F
100
AcDbEntity
  8
0
  6
Continuous
 62
     7
370
    25
100
AcDbCircle
 10
129.3683405172
 20
119.7729310345
 30
0.0
 40
52.99121541985785
  0
INSERT
  5
225
330
1F
100
AcDbEntity
  8
0
  6
Continuous
 62
     7
370
     0
100
AcDbBlockReference
  2
SW_CENTERMARKSYMBOL_0
 10
129.3683405172
 20
119.7729310345
 30
0.0
  0
LINE
  5
226
330
1F
100
AcDbEntity
  8
0
  6
CENTER
 62
     7
370
    18
100
AcDbLine
 10
206.8870082993
 20
119.7729310345
 30
0.0
 11
51.7805869772
 21
119.7729310345
 31
0.0
  0
LINE
  5
227
330
1F
100
AcDbEntity
  8
0
  6
Continuous
 62
     7
370
    18
100
AcDbLine
 10
204.8870082993
 20
112.1729310345
 30
0.0
 11
204.8870082993
 21
119.7729310345
 31
0.0
  0
SOLID
  5
228
330
1F
100
AcDbEntity
  8
0
  6
Continuous
 62
     7
370
    18
100
AcDbTrace
 10
204.8870082993
 20
119.7729310345
 30
0.0
 11
204.0870082993
 21
114.7729310345
 31
0.0
 12
205.6870082993
 22
114.7729310345
 32
0.0
 13
205.6870082993
 23
114.7729310345
 33
0.0
  0
LINE
  5
229
330
1F
100
AcDbEntity
  8
0
  6
Continuous
 62
     7
370
    18
100
AcDbLine
 10
53.7805869772
 20
112.1729310345
 30
0.0
 11
53.7805869772
 21
119.7729310345
 31
0.0
  0
SOLID
  5
22A
330
1F
100
AcDbEntity
  8
0
  6
Continuous
 62
     7
370
    18
100
AcDbTrace
 10
53.7805869772
 20
119.7729310345
 30
0.0
 11
52.9805869772
 21
114.7729310345
 31
0.0
 12
54.5805869772
 22
114.7729310345
 32
0.0
 13
54.5805869772
 23
114.7729310345
 33
0.0
  0
MTEXT
  5
22B
330
1F
100
AcDbEntity
  8
0
  6
Continuous
 62
     7
100
AcDbMText
 10
202.6395841716
 20
110.9966197572
 30
0.0
 40
5.0
 41
0.0
 71
     1
 72
     1
  1
A
  7
SLDTEXTSTYLE0
 73
     1
 44
1.0
  0
MTEXT
  5
22C
330
1F
100
AcDbEntity
  8
0
  6
Continuous
 62
     7
100
AcDbMText
 10
51.4187179797
 20
110.9966197572
 30
0.0
 40
5.0
 41
0.0
 71
     1
 72
     1
  1
A
  7
SLDTEXTSTYLE0
 73
     1
 44
1.0
  0
LINE
  5
22D
330
1F
100
AcDbEntity
  8
0
  6
Continuous
 62
     7
370
    25
100
AcDbLine
 10
368.4776975703
 20
209.9834796145
 30
0.0
 11
367.4168650545
 21
210.5960842567
 31
0.0
  0
LINE
  5
22E
330
1F
100
AcDbEntity
  8
0
  6
Continuous
 62
     7
370
    25
100
AcDbLine
 10
266.9913868931
 20
210.5960842567
 30
0.0
 11
265.9305543773
 21
209.9834796145
 31
0.0
  0
LINE
  5
22F
330
1F
100
AcDbEntity
  8
0
  6
Continuous
 62
     7
370
    25
100
AcDbLine
 10
389.7041258998
 20
175.0859799147
 30
0.0
 11
389.7041258998
 21
180.3934951866
 31
0.0
  0
LINE
  5
230
330
1F
100
AcDbEntity
  8
0
  6
Continuous
 62
     7
370
    25
100
AcDbLine
 10
244.7041260477
 20
180.3934951866
 30
0.0
 11
244.7041260477
 21
175.0859799147
 31
0.0
  0
LINE
  5
231
330
1F
100
AcDbEntity
  8
0
  6
Continuous
 62
     7
370
    25
100
AcDbLine
 10
265.9305543773
 20
145.4959954869
 30
0.0
 11
266.9913868931
 21
144.8833908447
 31
0.0
  0
LINE
  5
232
330
1F
100
AcDbEntity
  8
0
  6
Continuous
 62
     7
370
    25
100
AcDbLine
 10
367.4168650545
 20
144.8833908447
 30
0.0
 11
368.4776975703
 21
145.4959954869
 31
0.0
  0
SPLINE
  5
233
330
1F
100
AcDbEntity
  8
0
  6
Continuous
 62
     7
370
    25
100
AcDbSpline
210
0.0
220
0.0
230
1.0
 70
     8
 71
     3
 72
    35
 73
    31
 74
     0
 42
0.000000001
 43
0.00000001
 40
0.0
 40
0.0
 40
0.0
 40
0.0
 40
0.0411081438707158
 40
0.0581335461733542
 40
0.0863488848798337
 40
0.1156964433193888
 40
0.1472070316356558
 40
0.1801057768332647
 40
0.2140783559056973
 40
0.248874133153362
 40
0.2843150907814449
 40
0.320269563661747
 40
0.3566384152591329
 40
0.3933455908278069
 40
0.4303317749362209
 40
0.4675500327050456
 40
0.5049627592310577
 40
0.542539506973649
 40
0.5802554138630407
 40
0.6180900502464836
 40
0.6560265632658875
 40
0.6940510362690416
 40
0.7321520064533679
 40
0.7703201010212949
 40
0.8085477637065215
 40
0.8468290515041921
 40
0.885159487003286
 40
0.9235359556550046
 40
0.9619565732161169
 40
0.9999999999999999
 40
0.9999999999999999
 40
0.9999999999999999
 40
0.9999999999999999
 10
317.204125973766
 20
130.2785764283626
 30
0.0
 10
318.0142491259573
 20
130.2835154492505
 30
0.0
 10
319.1598939359524
 20
130.2905000214497
 30
0.0
 10
320.859642765756
 20
130.3375666323723
 30
0.0
 10
322.3262475104377
 20
130.3949320407103
 30
0.0
 10
324.0738027063265
 20
130.4913686098012
 30
0.0
 10
325.9075330149881
 20
130.6231257833958
 30
0.0
 10
327.8236399720556
 20
130.7950719378915
 30
0.0
 10
329.793141574796
 20
131.0086734305909
 30
0.0
 10
331.7986479939085
 20
131.2652661176595
 30
0.0
 10
333.82631060661
 20
131.5656408504684
 30
0.0
 10
335.8652251951411
 20
131.9102600488991
 30
0.0
 10
337.9064804363666
 20
132.2993190148096
 30
0.0
 10
339.9425912075367
 20
132.7328024944014
 30
0.0
 10
341.9671151753046
 20
133.2105219974149
 30
0.0
 10
343.9743927117683
 20
133.7321436850878
 30
0.0
 10
345.9593670134598
 20
134.2972092357086
 30
0.0
 10
347.9174575647718
 20
134.9051521383803
 30
0.0
 10
349.8444697287917
 20
135.5553107811002
 30
0.0
 10
351.7365290863031
 20
136.2469393713314
 30
0.0
 10
353.5900334385289
 20
136.9792171722048
 30
0.0
 10
355.4016158359217
 20
137.7512571949234
 30
0.0
 10
357.1681209298399
 20
138.5621121583546
 30
0.0
 10
358.886570408632
 20
139.410787385692
 30
0.0
 10
360.554197171575
 20
140.2962255061155
 30
0.0
 10
362.168242271403
 20
141.2173951464828
 30
0.0
 10
363.726653129694
 20
142.1729897370842
 30
0.0
 10
365.2254203095844
 20
143.1625830305299
 30
0.0
 10
366.6632188806782
 20
144.1786138106021
 30
0.0
 10
367.5661487984016
 20
144.8800395349282
 30
0.0
 10
368.0153867181342
 20
145.2290223596835
 30
0.0
  0
SPLINE
  5
234
330
1F
100
AcDbEntity
  8
0
  6
Continuous
 62
     7
370
    25
100
AcDbSpline
210
0.0
220
0.0
230
1.0
 70
     8
 71
     3
 72
    35
 73
    31
 74
     0
 42
0.000000001
 43
0.00000001
 40
0.0
 40
0.0
 40
0.0
 40
0.0
 40
0.0120167339516304
 40
0.0508739055392984
 40
0.0897271410040664
 40
0.1285749941919579
 40
0.1674159429592439
 40
0.2062488287634407
 40
0.2450724257412448
 40
0.2838853891382349
 40
0.3226861772107934
 40
0.3614729548516065
 40
0.4002434689747514
 40
0.4389948802478841
 40
0.4777235266819641
 40
0.5164245789085974
 40
0.5550915187887255
 40
0.5937153200964279
 40
0.632283105716737
 40
0.6707758378973572
 40
0.7091641104007337
 40
0.7473999244173846
 40
0.785399123005015
 40
0.8229992442795011
 40
0.8598407414641934
 40
0.8949390405366953
 40
0.925665206891569
 40
0.9487394448965709
 40
0.9749292481703303
 40
1.0
 40
1.0
 40
1.0
 40
1.0
 10
266.4318206905238
 20
145.2065265406259
 30
0.0
 10
266.5697820323287
 20
145.0947553522162
 30
0.0
 10
267.1538535695125
 20
144.6215621448056
 30
0.0
 10
268.2521124801949
 20
143.8167553344341
 30
0.0
 10
269.7253372912646
 20
142.7943576301237
 30
0.0
 10
271.2661788560318
 20
141.8064612393604
 30
0.0
 10
272.8662895737834
 20
140.8516608164902
 30
0.0
 10
274.5251362446297
 20
139.9319027347904
 30
0.0
 10
276.2399920269136
 20
139.0481751108241
 30
0.0
 10
278.00861275355
 20
138.2016640800126
 30
0.0
 10
279.8285174071852
 20
137.3934434297467
 30
0.0
 10
281.6971779943417
 20
136.6245562372453
 30
0.0
 10
283.6119637154721
 20
135.895991456429
 30
0.0
 10
285.5701477569156
 20
135.2086886163229
 30
0.0
 10
287.5688923082256
 20
134.5635350287481
 30
0.0
 10
289.605231386962
 20
133.9613651185565
 30
0.0
 10
291.6760410208786
 20
133.4029594136745
 30
0.0
 10
293.7779902222953
 20
132.8890440489468
 30
0.0
 10
295.9074567975037
 20
132.4202909027548
 30
0.0
 10
298.0603766502043
 20
131.997319160704
 30
0.0
 10
300.2319578982222
 20
131.6206996492535
 30
0.0
 10
302.416095177458
 20
131.290966942322
 30
0.0
 10
304.6040383731573
 20
131.0086480824692
 30
0.0
 10
306.7808883389051
 20
130.7743623297411
 30
0.0
 10
308.9140296727048
 20
130.589142873406
 30
0.0
 10
310.922250956453
 20
130.4547700099823
 30
0.0
 10
312.6664830319335
 20
130.3694402662148
 30
0.0
 10
314.238659357023
 20
130.3160243390792
 30
0.0
 10
315.7013303989893
 20
130.284502547662
 30
0.0
 10
316.7105380028568
 20
130.2805228416003
 30
0.0
 10
317.204125973766
 20
130.2785764283626
 30
0.0
  0
SPLINE
  5
235
330
1F
100
AcDbEntity
  8
0
  6
Continuous
 62
     7
370
    25
100
AcDbSpline
210
0.0
220
0.0
230
1.0
 70
     8
 71
     3
 72
    39
 73
    35
 74
     0
 42
0.000000001
 43
0.00000001
 40
0.0
 40
0.0
 40
0.0
 40
0.0
 40
0.0379048972357081
 40
0.0529874104384225
 40
0.0780571464022712
 40
0.1040428057424057
 40
0.1318874142059859
 40
0.1609239968946582
 40
0.19088431203601
 40
0.2215539955599566
 40
0.252780566492444
 40
0.2844511189147413
 40
0.3164805633036035
 40
0.3488035823978834
 40
0.3813692207006497
 40
0.4141371594882017
 40
0.4470751047891042
 40
0.4801569231929763
 40
0.5133612897622214
 40
0.5466706930804326
 40
0.5800706937497492
 40
0.6135493657641388
 40
0.6470968719400699
 40
0.680705139126895
 40
0.7143676088112204
 40
0.7480790455895706
 40
0.7818353908550556
 40
0.8156336526132629
 40
0.8494713706388842
 40
0.8833471337608962
 40
0.9172605907909193
 40
0.9512122597906311
 40
0.9852035572352952
 40
1.0
 40
1.0
 40
1.0
 40
1.0
 10
317.2041259737659
 20
128.4521709487717
 30
0.0
 10
318.0441381776077
 20
128.4575986819417
 30
0.0
 10
319.2183946632925
 20
128.4651861322768
 30
0.0
 10
320.9460344805324
 20
128.5156419098572
 30
0.0
 10
322.4081199723933
 20
128.5754147805868
 30
0.0
 10
324.1482590227497
 20
128.6751510283719
 30
0.0
 10
325.9699344785323
 20
128.8105287516381
 30
0.0
 10
327.8706175377396
 20
128.9864090854724
 30
0.0
 10
329.8222197111519
 20
129.2041936439601
 30
0.0
 10
331.8078856007802
 20
129.4651766508478
 30
0.0
 10
333.8141470152491
 20
129.7701178355343
 30
0.0
 10
335.8303619982841
 20
130.1194558693876
 30
0.0
 10
337.8478060832148
 20
130.5133677101963
 30
0.0
 10
339.8591302770154
 20
130.9518239680625
 30
0.0
 10
341.8579938836521
 20
131.4346255089592
 30
0.0
 10
343.8388150101891
 20
131.9614309457616
 30
0.0
 10
345.7965977012865
 20
132.5317772988507
 30
0.0
 10
347.7268100940331
 20
133.1450962037173
 30
0.0
 10
349.6252971208498
 20
133.8007269926832
 30
0.0
 10
351.4882169750524
 20
134.4979276043658
 30
0.0
 10
353.3119941564727
 20
135.2358839496251
 30
0.0
 10
355.0932841847552
 20
136.013718181156
 30
0.0
 10
356.8289466942505
 20
136.8304961342868
 30
0.0
 10
358.5160241564163
 20
137.6852342655006
 30
0.0
 10
360.1517258838413
 20
138.5769057622051
 30
0.0
 10
361.7334109329461
 20
139.5044476176471
 30
0.0
 10
363.2585881520437
 20
140.4667622835374
 30
0.0
 10
364.7248543772918
 20
141.4627334455768
 30
0.0
 10
366.1300547611315
 20
142.4911754533218
 30
0.0
 10
367.4716526087609
 20
143.5510479068668
 30
0.0
 10
368.7490592570045
 20
144.6406831589228
 30
0.0
 10
369.9548993762991
 20
145.7607087369852
 30
0.0
 10
370.890162555574
 20
146.6876247476136
 30
0.0
 10
371.3963237962806
 20
147.2496683966814
 30
0.0
 10
371.5498333828219
 20
147.4201261110377
 30
0.0
  0
SPLINE
  5
236
330
1F
100
AcDbEntity
  8
0
  6
Continuous
 62
     7
370
    25
100
AcDbSpline
210
0.0
220
0.0
230
1.0
 70
     8
 71
     3
 72
    38
 73
    34
 74
     0
 42
0.000000001
 43
0.00000001
 40
0.0
 40
0.0
 40
0.0
 40
0.0
 40
0.0309765641546801
 40
0.065197199044955
 40
0.0994270131763686
 40
0.13366205095105
 40
0.1678988566623333
 40
0.2021344432690836
 40
0.2363662361256974
 40
0.2705913433225927
 40
0.3048079369540765
 40
0.3390143506792922
 40
0.3732089703189334
 40
0.4073901380426911
 40
0.4415560396277205
 40
0.4757045693409326
 40
0.5098331579711715
 40
0.5439385409531102
 40
0.5780164287823022
 40
0.612061015388856
 40
0.6460642101215656
 40
0.6800143797932128
 40
0.7138941785329518
 40
0.7476765721268548
 40
0.7813170051580053
 40
0.8147364885675221
 40
0.8477804139078061
 40
0.880099967093371
 40
0.9107092326733495
 40
0.9368250267990728
 40
0.9573028649746708
 40
0.9810974116067219
 40
1.0
 40
1.0
 40
1.0
 40
1.0
 10
262.8906212458578
 20
147.3767363647517
 30
0.0
 10
263.2213015742432
 20
147.0235517749246
 30
0.0
 10
263.9172932627446
 20
146.280194768396
 30
0.0
 10
265.0680619043036
 20
145.1783165499467
 30
0.0
 10
266.3204815731489
 20
144.0655551371253
 30
0.0
 10
267.643701384301
 20
142.9820434052689
 30
0.0
 10
269.0335431374452
 20
141.9284587722341
 30
0.0
 10
270.4885950011338
 20
140.9063861940554
 30
0.0
 10
272.0065918117289
 20
139.9171042671387
 30
0.0
 10
273.5853950123435
 20
138.9619059174221
 30
0.0
 10
275.2227344252551
 20
138.0420123238991
 30
0.0
 10
276.9162890926352
 20
137.1585925518411
 30
0.0
 10
278.6636552598069
 20
136.3127656921062
 30
0.0
 10
280.4623490633143
 20
135.5056026754947
 30
0.0
 10
282.3098019558413
 20
134.7381254406321
 30
0.0
 10
284.2033559585954
 20
134.0113064381264
 30
0.0
 10
286.1402556821355
 20
133.3260677951977
 30
0.0
 10
288.1176360784044
 20
132.6832804224713
 30
0.0
 10
290.1325030473439
 20
132.0837631093272
 30
0.0
 10
292.1817021906067
 20
131.5282817485992
 30
0.0
 10
294.2618670611284
 20
131.0175488903841
 30
0.0
 10
296.3693303552607
 20
130.5522239750755
 30
0.0
 10
298.4999642721317
 20
130.1329150661757
 30
0.0
 10
300.6488756428739
 20
129.7601836381351
 30
0.0
 10
302.8097753717738
 20
129.4345578630791
 30
0.0
 10
304.9735257514871
 20
129.1565651654598
 30
0.0
 10
307.1242409741149
 20
128.9268446388191
 30
0.0
 10
309.2259782073958
 20
128.7465356698151
 30
0.0
 10
311.1845930054488
 20
128.6177867349754
 30
0.0
 10
312.887735266502
 20
128.5362404300446
 30
0.0
 10
314.4431673647646
 20
128.4849268717888
 30
0.0
 10
315.8407658730613
 20
128.4569016281203
 30
0.0
 10
316.7857631405385
 20
128.4536226125063
 30
0.0
 10
317.2041259737659
 20
128.4521709487717
 30
0.0
  0
LWPOLYLINE
  5
237
330
1F
100
AcDbEntity
  8
0
  6
Continuous
 62
     7
370
    25
100
AcDbPolyline
 90
      125
 70
   128
 43
0.0
 10
265.93888439
 20
209.98828921
 10
264.0243451727
 20
208.8401396235
 10
262.1869115536
 20
207.6507451221
 10
260.4292476356
 20
206.4218302141
 10
258.7539018635
 20
205.1551767086
 10
257.1633033284
 20
203.8526211322
 10
255.6597582463
 20
202.5160520659
 10
254.2454466136
 20
201.147407407
 10
252.9224190471
 20
199.7486715595
 10
251.6925938103
 20
198.3218725567
 10
250.5577540321
 20
196.8690791206
 10
249.5195451218
 20
195.3923976629
 10
248.579472383
 20
193.8939692305
 10
247.7388988313
 20
192.3759664015
 10
246.999043218
 20
190.8405901347
 10
246.3609782631
 20
189.2900665789
 10
245.8256290997
 20
187.7266438452
 10
245.3937719329
 20
186.152588747
 10
245.0660329143
 20
184.5701835137
 10
244.8428872342
 20
182.9817224816
 10
244.7246584324
 20
181.3895087673
 10
244.7115179295
 20
179.7958509286
 10
244.8034847779
 20
178.203059617
 10
245.0004256345
 20
176.6134442275
 10
245.3020549538
 20
175.0293095505
 10
245.7079354021
 20
173.4529524299
 10
246.2174784917
 20
171.8866584327
 10
246.8299454338
 20
170.3326985356
 10
247.5444482098
 20
168.7933258318
 10
248.359950859
 20
167.2707722645
 10
249.2752709806
 20
165.767245391
 10
250.2890814478
 20
164.2849251814
 10
251.3999123325
 20
162.8259608583
 10
252.606153036
 20
161.3924677805
 10
253.9060546246
 20
159.9865243759
 10
255.2977323654
 20
158.6101691281
 10
256.7791684585
 20
157.2653976205
 10
258.3482149634
 20
155.9541596434
 10
260.0025969126
 20
154.6783563664
 10
261.7399156104
 20
153.4398375822
 10
263.5576521107
 20
152.2403990248
 10
265.4531708695
 20
151.0817797654
 10
267.4237235658
 20
149.9656596911
 10
269.4664530866
 20
148.8936570693
 10
271.5783976692
 20
147.8673262014
 10
273.756495196
 20
146.888155169
 10
275.9975876338
 20
145.9575636765
 10
278.2984256128
 20
145.0769009925
 10
280.655673138
 20
144.2474439939
 10
283.0659124256
 20
143.4703953139
 10
285.5256488593
 20
142.7468815988
 10
288.0313160563
 20
142.0779518743
 10
290.5792810387
 20
141.4645760247
 10
293.1658495009
 20
140.9076433862
 10
295.787271166
 20
140.4079614579
 10
298.439745223
 20
139.9662547309
 10
301.1194258382
 20
139.5831636376
 10
303.8224277309
 20
139.2592436236
 10
306.5448318067
 20
138.9949643419
 10
309.2826908401
 20
138.7907089722
 10
312.0320351971
 20
138.6467736652
 10
314.7888785913
 20
138.5633671134
 10
317.5492238632
 20
138.5406102483
 10
320.3090687763
 20
138.5785360652
 10
323.0644118191
 20
138.6770895752
 10
325.8112580076
 20
138.8361278853
 10
328.5456246776
 20
139.0554204051
 10
331.2635472587
 20
139.3346491813
 10
333.9610850231
 20
139.6734093589
 10
336.6343267988
 20
140.0712097681
 10
339.2793966408
 20
140.5274736364
 10
341.8924594508
 20
141.0415394246
 10
344.4697265375
 20
141.6126617867
 10
347.00746111
 20
142.2400126496
 10
349.5019836958
 20
142.9226824148
 10
351.9496774755
 20
143.6596812762
 10
354.3469935273
 20
144.449940656
 10
356.6904559721
 20
145.2923147536
 10
358.9766670133
 20
146.1855822071
 10
361.2023118634
 20
147.1284478642
 10
363.3641635503
 20
148.1195446597
 10
365.4590875957
 20
149.1574355981
 10
367.4840465599
 20
150.2406158366
 10
369.4361044461
 20
151.3675148676
 10
371.3124309569
 20
152.5364987951
 10
373.1103055983
 20
153.7458727042
 10
374.8271216239
 20
154.9938831184
 10
376.4603898147
 20
156.2787205419
 10
378.0077420878
 20
157.5985220832
 10
379.4669349304
 20
158.9513741563
 10
380.8358526525
 20
160.335315255
 10
382.1125104541
 20
161.748338797
 10
383.2950573035
 20
163.1883960333
 10
384.3817786209
 20
164.6533990185
 10
385.3710987641
 20
166.1412236384
 10
386.2615833137
 20
167.6497126895
 10
387.051941152
 20
169.176679007
 10
387.7410263359
 20
170.7199086355
 10
388.3278397576
 20
172.2771640397
 10
388.8115305939
 20
173.8461873482
 10
389.1913975392
 20
175.4247036271
 10
389.4668898227
 20
177.0104241788
 10
389.6376080071
 20
178.60104986
 10
389.7033045672
 20
180.1942744155
 10
389.6638842494
 20
181.7877878221
 10
389.5194042092
 20
183.3792796377
 10
389.2700739291
 20
184.9664423513
 10
388.916254914
 20
186.5469747287
 10
388.4584601677
 20
188.118585149
 10
387.8973534487
 20
189.6789949274
 10
387.2337483083
 20
191.2259416189
 10
386.4686069104
 20
192.7571822987
 10
385.6030386369
 20
194.2704968141
 10
384.638298479
 20
195.7636910038
 10
383.5757852177
 20
197.234599879
 10
382.4170393958
 20
198.6810907623
 10
381.1637410838
 20
200.1010663805
 10
379.8177074445
 20
201.4924679044
 10
378.3808900979
 20
202.853277935
 10
376.855372292
 20
204.1815234278
 10
375.2433658816
 20
205.4752785538
 10
373.5472081219
 20
206.7326674918
 10
371.7693582796
 20
207.9518671479
 10
369.9123940669
 20
209.1311097994
 10
368.4776975703
 20
209.9834796145
  0
LWPOLYLINE
  5
238
330
1F
100
AcDbEntity
  8
0
  6
Continuous
 62
     7
370
    25
100
AcDbPolyline
 90
      165
 70
   128
 43
0.0
 10
367.4087073868
 20
210.6007943433
 10
365.4488936017
 20
211.6896349617
 10
363.4182739673
 20
212.7343417587
 10
361.3198286978
 20
213.7333814829
 10
359.1566375511
 20
214.6852879058
 10
356.9318753085
 20
215.5886639735
 10
354.6488071154
 20
216.442183857
 10
352.3107836891
 20
217.2445948982
 10
349.9212364014
 20
217.9947194481
 10
347.4836722426
 20
218.6914565958
 10
345.0016686741
 20
219.3337837831
 10
342.4788683785
 20
219.9207583065
 10
339.918973913
 20
220.4515186999
 10
337.3257422759
 20
220.9252859993
 10
334.702979392
 20
221.3413648856
 10
332.0545345278
 20
221.699144706
 10
329.3842946411
 20
221.998100369
 10
326.6961786773
 20
222.2377931161
 10
323.9941318172
 20
222.417871165
 10
321.2821196872
 20
222.5380702265
 10
318.5641225391
 20
222.5982138918
 10
315.8441294085
 20
222.5982138918
 10
313.1261322603
 20
222.5380702265
 10
310.4141201303
 20
222.417871165
 10
307.7120732702
 20
222.2377931161
 10
305.0239573064
 20
221.998100369
 10
302.3537174198
 20
221.699144706
 10
299.7052725555
 20
221.3413648856
 10
297.0825096717
 20
220.9252859993
 10
294.4892780345
 20
220.4515186999
 10
291.9293835691
 20
219.9207583065
 10
289.4065832734
 20
219.3337837831
 10
286.9245797049
 20
218.6914565958
 10
284.4870155461
 20
217.9947194481
 10
282.0974682585
 20
217.2445948982
 10
279.7594448322
 20
216.442183857
 10
277.476376639
 20
215.5886639735
 10
275.2516143964
 20
214.6852879058
 10
273.0884232497
 20
213.7333814829
 10
270.9899779802
 20
212.7343417587
 10
268.9593583458
 20
211.6896349617
 10
266.9995445607
 20
210.6007943433
 10
265.113412922
 20
209.4694179272
 10
263.3037315879
 20
208.2971661643
 10
261.5731565154
 20
207.0857594958
 10
259.924227562
 20
205.8369758279
 10
258.3593647583
 20
204.5526479229
 10
256.8808647562
 20
203.2346607092
 10
255.4908974585
 20
201.8849485146
 10
254.1915028338
 20
200.505492228
 10
252.9845879229
 20
199.0983163917
 10
251.8719240398
 20
197.6654862302
 10
250.8551441723
 20
196.2091046195
 10
249.935740585
 20
194.7313090004
 10
249.1150626294
 20
193.2342682417
 10
248.3943147637
 20
191.7201794571
 10
247.7745547847
 20
190.1912647808
 10
247.2566922757
 20
188.6497681059
 10
246.8414872712
 20
187.0979517914
 10
246.5295491419
 20
185.5380933416
 10
246.3213357
 20
183.9724820639
 10
246.2171525275
 20
182.4034157088
 10
246.2171525275
 20
180.8331970975
 10
246.3213357
 20
179.2641307424
 10
246.5295491419
 20
177.6985194648
 10
246.8414872712
 20
176.1386610149
 10
247.2566922757
 20
174.5868447004
 10
247.7745547847
 20
173.0453480255
 10
248.3943147637
 20
171.5164333492
 10
249.1150626294
 20
170.0023445647
 10
249.935740585
 20
168.5053038059
 10
250.8551441723
 20
167.0275081868
 10
251.8719240398
 20
165.5711265761
 10
252.9845879229
 20
164.1382964146
 10
254.1915028338
 20
162.7311205783
 10
255.4908974585
 20
161.3516642917
 10
256.8808647562
 20
160.0019520972
 10
258.3593647583
 20
158.6839648834
 10
259.924227562
 20
157.3996369784
 10
261.5731565154
 20
156.1508533105
 10
263.3037315879
 20
154.939446642
 10
265.113412922
 20
153.7671948791
 10
266.9995445607
 20
152.635818463
 10
268.9593583458
 20
151.5469778446
 10
270.9899779802
 20
150.5022710477
 10
273.0884232497
 20
149.5032313234
 10
275.2516143964
 20
148.5513249005
 10
277.476376639
 20
147.6479488328
 10
279.7594448322
 20
146.7944289493
 10
282.0974682585
 20
145.9920179082
 10
284.4870155461
 20
145.2418933582
 10
286.9245797049
 20
144.5451562106
 10
289.4065832734
 20
143.9028290232
 10
291.9293835691
 20
143.3158544998
 10
294.4892780345
 20
142.7850941064
 10
297.0825096717
 20
142.3113268071
 10
299.7052725555
 20
141.8952479207
 10
302.3537174198
 20
141.5374681004
 10
305.0239573064
 20
141.2385124373
 10
307.7120732702
 20
140.9988196902
 10
310.4141201303
 20
140.8187416413
 10
313.1261322603
 20
140.6985425798
 10
315.8441294085
 20
140.6383989145
 10
318.5641225391
 20
140.6383989145
 10
321.2821196872
 20
140.6985425798
 10
323.9941318172
 20
140.8187416413
 10
326.6961786773
 20
140.9988196902
 10
329.3842946411
 20
141.2385124373
 10
332.0545345278
 20
141.5374681004
 10
334.702979392
 20
141.8952479207
 10
337.3257422759
 20
142.3113268071
 10
339.918973913
 20
142.7850941064
 10
342.4788683785
 20
143.3158544998
 10
345.0016686741
 20
143.9028290232
 10
347.4836722426
 20
144.5451562106
 10
349.9212364014
 20
145.2418933582
 10
352.3107836891
 20
145.9920179082
 10
354.6488071154
 20
146.7944289493
 10
356.9318753085
 20
147.6479488328
 10
359.1566375511
 20
148.5513249005
 10
361.3198286978
 20
149.5032313234
 10
363.4182739673
 20
150.5022710477
 10
365.4488936017
 20
151.5469778446
 10
367.4087073868
 20
152.635818463
 10
369.2948390255
 20
153.7671948791
 10
371.1045203596
 20
154.939446642
 10
372.8350954321
 20
156.1508533105
 10
374.4840243856
 20
157.3996369784
 10
376.0488871893
 20
158.6839648834
 10
377.5273871913
 20
160.0019520972
 10
378.917354489
 20
161.3516642917
 10
380.2167491137
 20
162.7311205783
 10
381.4236640247
 20
164.1382964146
 10
382.5363279077
 20
165.5711265761
 10
383.5531077752
 20
167.0275081868
 10
384.4725113625
 20
168.5053038059
 10
385.2931893181
 20
170.0023445647
 10
386.0139371838
 20
171.5164333492
 10
386.6336971628
 20
173.0453480255
 10
387.1515596719
 20
174.5868447004
 10
387.5667646763
 20
176.1386610149
 10
387.8787028056
 20
177.6985194648
 10
388.0869162475
 20
179.2641307424
 10
388.19109942
 20
180.8331970975
 10
388.19109942
 20
182.4034157088
 10
388.0869162475
 20
183.9724820639
 10
387.8787028056
 20
185.5380933416
 10
387.5667646763
 20
187.0979517914
 10
387.1515596719
 20
188.6497681059
 10
386.6336971628
 20
190.1912647808
 10
386.0139371838
 20
191.7201794571
 10
385.2931893181
 20
193.2342682417
 10
384.4725113625
 20
194.7313090004
 10
383.5531077752
 20
196.2091046195
 10
382.5363279077
 20
197.6654862302
 10
381.4236640247
 20
199.0983163917
 10
380.2167491137
 20
200.505492228
 10
378.917354489
 20
201.8849485146
 10
377.5273871913
 20
203.2346607092
 10
376.0488871893
 20
204.5526479229
 10
374.4840243856
 20
205.8369758279
 10
372.8350954321
 20
207.0857594958
 10
371.1045203596
 20
208.2971661643
 10
369.2948390255
 20
209.4694179272
 10
367.4087073868
 20
210.6007943433
  0
LWPOLYLINE
  5
239
330
1F
100
AcDbEntity
  8
0
  6
Continuous
 62
     7
370
    25
100
AcDbPolyline
 90
       85
 70
   128
 43
0.0
 10
244.7041260477
 20
175.0859799147
 10
244.7115179295
 20
174.4883356568
 10
244.8034847779
 20
172.8955443451
 10
245.0004256345
 20
171.3059289556
 10
245.3020549538
 20
169.7217942786
 10
245.7079354021
 20
168.145437158
 10
246.2174784917
 20
166.5791431608
 10
246.8299454338
 20
165.0251832637
 10
247.5444482098
 20
163.4858105599
 10
248.359950859
 20
161.9632569927
 10
249.2752709806
 20
160.4597301192
 10
250.2890814478
 20
158.9774099095
 10
251.3999123325
 20
157.5184455864
 10
252.606153036
 20
156.0849525086
 10
253.9060546246
 20
154.6790091041
 10
255.2977323654
 20
153.3026538562
 10
256.7791684585
 20
151.9578823487
 10
258.3482149634
 20
150.6466443715
 10
260.0025969126
 20
149.3708410945
 10
261.7399156104
 20
148.1323223104
 10
263.5576521107
 20
146.932883753
 10
265.4531708695
 20
145.7742644935
 10
267.4237235658
 20
144.6581444192
 10
269.4664530866
 20
143.5861417975
 10
271.5783976692
 20
142.5598109296
 10
273.756495196
 20
141.5806398972
 10
275.9975876338
 20
140.6500484046
 10
278.2984256128
 20
139.7693857207
 10
280.655673138
 20
138.939928722
 10
283.0659124256
 20
138.162880042
 10
285.5256488593
 20
137.4393663269
 10
288.0313160563
 20
136.7704366025
 10
290.5792810387
 20
136.1570607528
 10
293.1658495009
 20
135.6001281143
 10
295.787271166
 20
135.100446186
 10
298.439745223
 20
134.658739459
 10
301.1194258382
 20
134.2756483658
 10
303.8224277309
 20
133.9517283518
 10
306.5448318067
 20
133.6874490701
 10
309.2826908401
 20
133.4831937003
 10
312.0320351971
 20
133.3392583933
 10
314.7888785913
 20
133.2558518415
 10
317.5492238632
 20
133.2330949764
 10
320.3090687763
 20
133.2710207933
 10
323.0644118191
 20
133.3695743034
 10
325.8112580076
 20
133.5286126135
 10
328.5456246776
 20
133.7479051332
 10
331.2635472587
 20
134.0271339094
 10
333.9610850231
 20
134.3658940871
 10
336.6343267988
 20
134.7636944963
 10
339.2793966408
 20
135.2199583645
 10
341.8924594508
 20
135.7340241528
 10
344.4697265375
 20
136.3051465148
 10
347.00746111
 20
136.9324973778
 10
349.5019836958
 20
137.6151671429
 10
351.9496774755
 20
138.3521660043
 10
354.3469935273
 20
139.1424253841
 10
356.6904559721
 20
139.9847994817
 10
358.9766670133
 20
140.8780669353
 10
361.2023118634
 20
141.8209325924
 10
363.3641635503
 20
142.8120293879
 10
365.4590875957
 20
143.8499203262
 10
367.4840465599
 20
144.9331005648
 10
369.4361044461
 20
146.0599995957
 10
371.3124309569
 20
147.2289835233
 10
373.1103055983
 20
148.4383574324
 10
374.8271216239
 20
149.6863678466
 10
376.4603898147
 20
150.9712052701
 10
378.0077420878
 20
152.2910068114
 10
379.4669349304
 20
153.6438588844
 10
380.8358526525
 20
155.0277999831
 10
382.1125104541
 20
156.4408235251
 10
383.2950573035
 20
157.8808807614
 10
384.3817786209
 20
159.3458837467
 10
385.3710987641
 20
160.8337083666
 10
386.2615833137
 20
162.3421974177
 10
387.051941152
 20
163.8691637351
 10
387.7410263359
 20
165.4123933637
 10
388.3278397576
 20
166.9696487679
 10
388.8115305939
 20
168.5386720764
 10
389.1913975392
 20
170.1171883553
 10
389.4668898227
 20
171.7029089069
 10
389.6376080071
 20
173.2935345881
 10
389.7033045672
 20
174.8867591437
 10
389.7041258998
 20
175.0859799147
  0
LWPOLYLINE
  5
23A
330
1F
100
AcDbEntity
  8
0
  6
Continuous
 62
     7
370
    25
100
AcDbPolyline
 90
      149
 70
   128
 43
0.0
 10
276.1919327068
 20
157.9424711845
 10
274.488279251
 20
158.9686348455
 10
272.8616026381
 20
160.0356147455
 10
271.3148342495
 20
161.1414881148
 10
269.8507614662
 20
162.2842620946
 10
268.4720226465
 20
163.4618773291
 10
267.1811023707
 20
164.6722116759
 10
265.9803269646
 20
165.9130840309
 10
264.8718603065
 20
167.1822582581
 10
263.8576999284
 20
168.4774472198
 10
262.9396734157
 20
169.7963168979
 10
262.1194351143
 20
171.1364906002
 10
261.398463149
 20
172.4955532431
 10
260.77805676
 20
173.8710557037
 10
260.2593339617
 20
175.2605192338
 10
259.8432295275
 20
176.661439926
 10
259.5304933058
 20
178.0712932267
 10
259.3216888683
 20
179.4875384849
 10
259.2171924948
 20
180.9076235309
 10
259.2171924948
 20
182.3289892754
 10
259.3216888683
 20
183.7490743214
 10
259.5304933058
 20
185.1653195796
 10
259.8432295275
 20
186.5751728803
 10
260.2593339617
 20
187.9760935725
 10
260.77805676
 20
189.3655571026
 10
261.398463149
 20
190.7410595632
 10
262.1194351143
 20
192.1001222061
 10
262.9396734157
 20
193.4402959084
 10
263.8576999284
 20
194.7591655865
 10
264.8718603065
 20
196.0543545482
 10
265.9803269646
 20
197.3235287754
 10
267.1811023707
 20
198.5644011304
 10
268.4720226465
 20
199.7747354773
 10
269.8507614662
 20
200.9523507117
 10
271.3148342495
 20
202.0951246916
 10
272.8616026381
 20
203.2009980608
 10
274.488279251
 20
204.2679779609
 10
276.1919327068
 20
205.2941416219
 10
277.9694929069
 20
206.2776398276
 10
279.8177565677
 20
207.2167002477
 10
281.7333929931
 20
208.1096306319
 10
283.7129500769
 20
208.9548218593
 10
285.7528605233
 20
209.7507508381
 10
287.8494482759
 20
210.4959832506
 10
289.9989351417
 20
211.1891761375
 10
292.1974476003
 20
211.8290803184
 10
294.4410237835
 20
212.4145426428
 10
296.7256206155
 20
212.944508068
 10
299.0471210982
 20
213.4180215604
 10
301.401341731
 20
213.8342298167
 10
303.7840400491
 20
214.1923828015
 10
306.1909222691
 20
214.491835099
 10
308.6176510266
 20
214.7320470758
 10
311.0598531923
 20
214.9125858537
 10
313.5131277529
 20
215.0331260897
 10
315.9730537417
 20
215.0934505621
 10
318.4351982059
 20
215.0934505621
 10
320.8951241947
 20
215.0331260897
 10
323.3483987552
 20
214.9125858537
 10
325.7906009209
 20
214.7320470758
 10
328.2173296784
 20
214.491835099
 10
330.6242118984
 20
214.1923828015
 10
333.0069102165
 20
213.8342298167
 10
335.3611308493
 20
213.4180215604
 10
337.6826313321
 20
212.944508068
 10
339.967228164
 20
212.4145426428
 10
342.2108043472
 20
211.8290803184
 10
344.4093168058
 20
211.1891761375
 10
346.5588036717
 20
210.4959832506
 10
348.6553914242
 20
209.7507508381
 10
350.6953018706
 20
208.9548218593
 10
352.6748589544
 20
208.1096306319
 10
354.5904953798
 20
207.2167002477
 10
356.4387590406
 20
206.2776398276
 10
358.2163192408
 20
205.2941416219
 10
359.9199726966
 20
204.2679779609
 10
361.5466493094
 20
203.2009980608
 10
363.093417698
 20
202.0951246916
 10
364.5574904813
 20
200.9523507117
 10
365.9362293011
 20
199.7747354773
 10
367.2271495768
 20
198.5644011304
 10
368.4279249829
 20
197.3235287754
 10
369.536391641
 20
196.0543545482
 10
370.5505520191
 20
194.7591655865
 10
371.4685785318
 20
193.4402959084
 10
372.2888168333
 20
192.1001222061
 10
373.0097887986
 20
190.7410595632
 10
373.6301951875
 20
189.3655571026
 10
374.1489179858
 20
187.9760935725
 10
374.56502242
 20
186.5751728803
 10
374.8777586418
 20
185.1653195796
 10
375.0865630793
 20
183.7490743214
 10
375.1910594528
 20
182.3289892754
 10
375.1910594528
 20
180.9076235309
 10
375.0865630793
 20
179.4875384849
 10
374.8777586418
 20
178.0712932267
 10
374.56502242
 20
176.661439926
 10
374.1489179858
 20
175.2605192338
 10
373.6301951875
 20
173.8710557037
 10
373.0097887986
 20
172.4955532431
 10
372.2888168333
 20
171.1364906002
 10
371.4685785318
 20
169.7963168979
 10
370.5505520191
 20
168.4774472198
 10
369.536391641
 20
167.1822582581
 10
368.4279249829
 20
165.9130840309
 10
367.2271495768
 20
164.6722116759
 10
365.9362293011
 20
163.4618773291
 10
364.5574904813
 20
162.2842620946
 10
363.093417698
 20
161.1414881148
 10
361.5466493094
 20
160.0356147455
 10
359.9199726966
 20
158.9686348455
 10
358.2163192408
 20
157.9424711845
 10
356.4387590406
 20
156.9589729788
 10
354.5904953798
 20
156.0199125586
 10
352.6748589544
 20
155.1269821744
 10
350.6953018706
 20
154.2817909471
 10
348.6553914242
 20
153.4858619682
 10
346.5588036717
 20
152.7406295558
 10
344.4093168058
 20
152.0474366688
 10
342.2108043472
 20
151.4075324879
 10
339.967228164
 20
150.8220701635
 10
337.6826313321
 20
150.2921047383
 10
335.3611308493
 20
149.8185912459
 10
333.0069102165
 20
149.4023829896
 10
330.6242118984
 20
149.0442300048
 10
328.2173296784
 20
148.7447777073
 10
325.7906009209
 20
148.5045657305
 10
323.3483987552
 20
148.3240269526
 10
320.8951241947
 20
148.2034867166
 10
318.4351982059
 20
148.1431622442
 10
315.9730537417
 20
148.1431622442
 10
313.5131277529
 20
148.2034867166
 10
311.0598531923
 20
148.3240269526
 10
308.6176510266
 20
148.5045657305
 10
306.1909222691
 20
148.7447777073
 10
303.7840400491
 20
149.0442300048
 10
301.401341731
 20
149.4023829896
 10
299.0471210982
 20
149.8185912459
 10
296.7256206155
 20
150.2921047383
 10
294.4410237835
 20
150.8220701635
 10
292.1974476003
 20
151.4075324879
 10
289.9989351417
 20
152.0474366688
 10
287.8494482759
 20
152.7406295558
 10
285.7528605233
 20
153.4858619682
 10
283.7129500769
 20
154.2817909471
 10
281.7333929931
 20
155.1269821744
 10
279.8177565677
 20
156.0199125586
 10
277.9694929069
 20
156.9589729788
 10
276.1919327068
 20
157.9424711845
  0
LWPOLYLINE
  5
23B
330
1F
100
AcDbEntity
  8
0
  6
Continuous
 62
     7
370
    25
100
AcDbPolyline
 90
       43
 70
   128
 43
0.0
 10
266.9995445607
 20
144.878680758
 10
268.9593583458
 20
143.7898401396
 10
270.9899779802
 20
142.7451333427
 10
273.0884232497
 20
141.7460936184
 10
275.2516143964
 20
140.7941871955
 10
277.476376639
 20
139.8908111278
 10
279.7594448322
 20
139.0372912443
 10
282.0974682585
 20
138.2348802032
 10
284.4870155461
 20
137.4847556532
 10
286.9245797049
 20
136.7880185056
 10
289.4065832734
 20
136.1456913182
 10
291.9293835691
 20
135.5587167948
 10
294.4892780345
 20
135.0279564014
 10
297.0825096717
 20
134.5541891021
 10
299.7052725555
 20
134.1381102157
 10
302.3537174198
 20
133.7803303954
 10
305.0239573064
 20
133.4813747323
 10
307.7120732702
 20
133.2416819852
 10
310.4141201303
 20
133.0616039363
 10
313.1261322603
 20
132.9414048748
 10
315.8441294085
 20
132.8812612095
 10
318.5641225391
 20
132.8812612095
 10
321.2821196872
 20
132.9414048748
 10
323.9941318172
 20
133.0616039363
 10
326.6961786773
 20
133.2416819852
 10
329.3842946411
 20
133.4813747323
 10
332.0545345278
 20
133.7803303954
 10
334.702979392
 20
134.1381102157
 10
337.3257422759
 20
134.5541891021
 10
339.918973913
 20
135.0279564014
 10
342.4788683785
 20
135.5587167948
 10
345.0016686741
 20
136.1456913182
 10
347.4836722426
 20
136.7880185056
 10
349.9212364014
 20
137.4847556532
 10
352.3107836891
 20
138.2348802032
 10
354.6488071154
 20
139.0372912443
 10
356.9318753085
 20
139.8908111278
 10
359.1566375511
 20
140.7941871955
 10
361.3198286978
 20
141.7460936184
 10
363.4182739673
 20
142.7451333427
 10
365.4488936017
 20
143.7898401396
 10
367.4087073868
 20
144.878680758
 10
367.4168650545
 20
144.8833908447
  0
LWPOLYLINE
  5
23C
330
1F
100
AcDbEntity
  8
0
  6
Continuous
 62
     7
370
    25
100
AcDbPolyline
 90
      142
 70
   128
 43
0.0
 10
279.7336782071
 20
200.3916426265
 10
278.1016847891
 20
199.4065660771
 10
276.5473256486
 20
198.380498503
 10
275.0736868218
 20
197.3154770663
 10
273.6836940821
 20
196.2136162686
 10
272.3801071316
 20
195.0771037525
 10
271.1655141213
 20
193.9081959584
 10
270.0423265133
 20
192.7092136444
 10
269.0127742926
 20
191.4825372791
 10
268.0789015399
 20
190.2306023147
 10
267.2425623731
 20
188.9558943523
 10
266.5054172662
 20
187.6609442065
 10
265.8689297524
 20
186.3483228811
 10
265.334363519
 20
185.020636464
 10
264.9027798976
 20
183.6805209539
 10
264.5750357576
 20
182.3306370259
 10
264.3517818047
 20
180.9736647498
 10
264.2334612889
 20
179.6122982683
 10
264.2203091246
 20
178.2492404485
 10
264.3123514242
 20
176.8871975157
 10
264.5094054463
 20
175.5288736799
 10
264.8110799584
 20
174.1769657675
 10
265.2167760136
 20
172.8341578664
 10
265.7256881399
 20
171.5031159974
 10
266.3368059395
 20
170.186482821
 10
267.0489160946
 20
168.8868723904
 10
267.8606047762
 20
167.6068649619
 10
268.7702604518
 20
166.3490018717
 10
269.7760770841
 20
165.1157804906
 10
270.8760577173
 20
163.9096492654
 10
272.0680184417
 20
162.7330028581
 10
273.3495927296
 20
161.5881773912
 10
274.7182361339
 20
160.4774458097
 10
276.1712313398
 20
159.4030133683
 10
277.7056935598
 20
158.3670132532
 10
279.3185762612
 20
157.3715023467
 10
281.0066772147
 20
156.4184571435
 10
282.7666448522
 20
155.5097698268
 10
284.5949849207
 20
154.647244511
 10
286.4880674203
 20
153.8325936604
 10
288.442133811
 20
153.0674346888
 10
290.4533044748
 20
152.3532867484
 10
292.5175864185
 20
151.691567714
 10
294.6308812013
 20
151.0835913674
 10
296.7889930722
 20
150.5305647894
 10
298.9876372998
 20
150.0335859631
 10
301.2224486794
 20
149.5936415939
 10
303.4889902
 20
149.2116051506
 10
305.7827618531
 20
148.8882351313
 10
308.0992095674
 20
148.6241735571
 10
310.4337342505
 20
148.419944698
 10
312.7817009197
 20
148.2759540313
 10
315.1384479044
 20
148.1924874373
 10
317.4992961018
 20
148.169710631
 10
319.8595582661
 20
148.2076688339
 10
322.2145483155
 20
148.3062866833
 10
324.5595906351
 20
148.4653683826
 10
326.8900293604
 20
148.68459809
 10
329.2012376212
 20
148.963540545
 10
331.4886267272
 20
149.3016419332
 10
333.7476552793
 20
149.6982309857
 10
335.9738381853
 20
150.1525203116
 10
338.1627555651
 20
150.6636079615
 10
340.3100615258
 20
151.2304792181
 10
342.4114927903
 20
151.8520086111
 10
344.4628771613
 20
152.5269621513
 10
346.460141805
 20
153.2539997811
 10
348.3993213373
 20
154.0316780344
 10
350.2765656968
 20
154.8584529031
 10
352.0881477886
 20
155.7326829022
 10
353.8304708841
 20
156.6526323291
 10
355.500075762
 20
157.6164747091
 10
357.0936475765
 20
158.6222964226
 10
358.6080224382
 20
159.6681005037
 10
360.040193696
 20
160.751810605
 10
361.3873179064
 20
161.8712751205
 10
362.646720479
 20
163.0242714571
 10
363.8159009866
 20
164.2085104472
 10
364.8925381295
 20
165.421640894
 10
365.8744943444
 20
166.6612542393
 10
366.7598200479
 20
167.9248893454
 10
367.546757508
 20
169.2100373819
 10
368.2337443331
 20
170.5141468062
 10
368.8194165745
 20
171.8346284299
 10
369.3026114341
 20
173.1688605589
 10
369.6823695733
 20
174.5141941988
 10
369.9579370174
 20
175.8679583142
 10
370.1287666529
 20
177.2274651318
 10
370.1945193132
 20
178.5900154766
 10
370.1550644526
 20
179.952904131
 10
370.010480405
 20
181.3134252058
 10
369.7610542286
 20
182.6688775123
 10
369.4072811361
 20
184.0165699254
 10
368.9498635112
 20
185.3538267266
 10
368.3897095143
 20
186.6779929163
 10
367.7279312791
 20
187.986439485
 10
366.9658427053
 20
189.2765686333
 10
366.104956849
 20
190.5458189291
 10
365.1469829195
 20
191.7916703935
 10
364.0938228853
 20
193.0116495037
 10
362.9475676983
 20
194.203334104
 10
361.7104931419
 20
195.3643582152
 10
360.3850553132
 20
196.4924167311
 10
358.9738857463
 20
197.5852699961
 10
357.4797861878
 20
198.6407482512
 10
355.905723034
 20
199.6567559419
 10
354.2548214416
 20
200.6312758791
 10
352.530359123
 20
201.5623732437
 10
350.7357598384
 20
202.448199428
 10
348.8745865986
 20
203.2869957061
 10
346.9505345908
 20
204.0770967256
 10
344.9674238421
 20
204.8169338141
 10
342.9291916354
 20
205.5050380936
 10
340.8398846921
 20
206.1400433967
 10
338.7036511376
 20
206.7206889791
 10
336.5247322661
 20
207.2458220228
 10
334.3074541191
 20
207.7143999248
 10
332.0562188973
 20
208.125492367
 10
329.7754962197
 20
208.4782831633
 10
327.4698142502
 20
208.7720718804
 10
325.1437507069
 20
209.0062752279
 10
322.8019237735
 20
209.1804282168
 10
320.4489829308
 20
209.2941850823
 10
318.089599725
 20
209.3473199709
 10
315.728458493
 20
209.3397273881
 10
313.3702470622
 20
209.2714224082
 10
311.019647443
 20
209.1425406445
 10
308.6813265336
 20
208.9533379798
 10
306.3599268535
 20
208.7041900584
 10
304.060057327
 20
208.3955915406
 10
301.7862841321
 20
208.02815512
 10
299.5431216351
 20
207.6026103077
 10
297.3350234273
 20
207.1198019836
 10
295.1663734835
 20
206.5806887188
 10
293.0414774574
 20
205.9863408728
 10
290.9645541333
 20
205.3379384684
 10
288.9397270503
 20
204.6367688484
 10
286.971016315
 20
203.8842241202
 10
285.0623306204
 20
203.0817983917
 10
283.2174594854
 20
202.2310848049
 10
281.4400657306
 20
201.3337723729
 10
279.7336782071
 20
200.3916426265
  0
ARC
  5
23D
330
1F
100
AcDbEntity
  8
0
  6
Continuous
 62
     7
370
    25
100
AcDbCircle
 10
296.3215645271
 20
154.4423521262
 30
0.0
 40
42.08102850302483
100
AcDbArc
 50
119.1178912486
 51
138.8933681427
  0
LWPOLYLINE
  5
23E
330
1F
100
AcDbEntity
  8
0
  6
Continuous
 62
     7
370
    25
100
AcDbPolyline
 90
       46
 70
   128
 43
0.0
 10
369.7942078654
 20
182.1090488409
 10
368.8617512365
 20
183.1670757587
 10
367.6508061845
 20
184.4184573499
 10
366.348952805
 20
185.6390422996
 10
364.9585371259
 20
186.826631031
 10
363.4820647701
 20
187.9790834292
 10
361.9221964407
 20
189.0943226969
 10
360.2817431257
 20
190.1703390976
 10
358.563661033
 20
191.205193577
 10
356.7710462626
 20
192.1970212575
 10
354.9071292275
 20
193.1440347985
 10
352.9752688322
 20
194.0445276175
 10
350.9789464196
 20
194.8968769657
 10
348.9217594977
 20
195.699546852
 10
346.8074152564
 20
196.4510908109
 10
344.6397238869
 20
197.1501545094
 10
342.4225917156
 20
197.7954781875
 10
340.1600141645
 20
198.3858989284
 10
337.8560685513
 20
198.9203527538
 10
335.5149067416
 20
199.397876542
 10
333.1407476674
 20
199.8176097627
 10
330.7378697237
 20
200.1787960284
 10
328.310603059
 20
200.4807844569
 10
325.863321772
 20
200.7230308447
 10
323.4004360288
 20
200.9050986475
 10
320.9263841161
 20
201.0266597668
 10
318.4456244426
 20
201.0874951411
 10
315.9626275049
 20
201.0874951411
 10
313.4818678315
 20
201.0266597668
 10
311.0078159188
 20
200.9050986475
 10
308.5449301756
 20
200.7230308447
 10
306.0976488885
 20
200.4807844569
 10
303.6703822238
 20
200.1787960284
 10
301.2675042801
 20
199.8176097627
 10
298.8933452059
 20
199.397876542
 10
296.5521833963
 20
198.9203527538
 10
294.248237783
 20
198.3858989284
 10
291.9856602319
 20
197.7954781875
 10
289.7685280606
 20
197.1501545094
 10
287.6008366911
 20
196.4510908109
 10
285.4864924498
 20
195.699546852
 10
283.4293055279
 20
194.8968769657
 10
281.4329831154
 20
194.0445276175
 10
279.50112272
 20
193.1440347985
 10
277.6372056849
 20
192.1970212575
 10
275.8445909145
 20
191.205193577
  0
LWPOLYLINE
  5
23F
330
1F
100
AcDbEntity
  8
0
  6
Continuous
 62
     7
370
    25
100
AcDbPolyline
 90
       39
 70
   128
 43
0.0
 10
359.8770087181
 20
141.102824657
 10
359.822419161
 20
141.0731588084
 10
357.9255494558
 20
140.085143176
 10
355.9600142184
 20
139.1429174337
 10
353.929127786
 20
138.2480703871
 10
351.8363146924
 20
137.4021109509
 10
349.685103894
 20
136.606465604
 10
347.4791228189
 20
135.8624759845
 10
345.2220912502
 20
135.1713966272
 10
342.9178150537
 20
134.5343928482
 10
340.5701797603
 20
133.95253878
 10
338.1831440143
 20
133.4268155602
 10
335.7607328979
 20
132.9581096771
 10
333.3070311444
 20
132.5472114748
 10
330.8261762498
 20
132.1948138206
 10
328.3223514968
 20
131.9015109368
 10
325.7997789004
 20
131.6677973982
 10
323.2627120886
 20
131.4940672989
 10
320.71542913
 20
131.3806135871
 10
318.16222532
 20
131.3276275713
 10
315.6074059377
 20
131.3351985981
 10
313.0552789866
 20
131.4033139009
 10
310.5101479302
 20
131.5318586219
 10
307.976304435
 20
131.7206160057
 10
305.4580211345
 20
131.9692677646
 10
302.959544424
 20
132.2773946154
 10
300.4850873004
 20
132.6444769867
 10
298.0388222583
 20
133.0698958944
 10
295.624874254
 20
133.5529339862
 10
293.2473137497
 20
134.0927767504
 10
290.9101498505
 20
134.68851389
 10
288.6173235434
 20
135.3391408575
 10
286.3727010521
 20
136.0435605486
 10
284.1800673181
 20
136.8005851523
 10
282.0431196178
 20
137.608938154
 10
279.9654613285
 20
138.4672564875
 10
277.950595852
 20
139.374092834
 10
276.0019207075
 20
140.3279180623
 10
274.5312432294
 20
141.102824657
  0
LWPOLYLINE
  5
240
330
1F
100
AcDbEntity
  8
0
  6
Continuous
 62
     7
370
    25
100
AcDbPolyline
 90
       54
 70
   128
 43
0.0
 10
354.6745737405
 20
199.983372221
 10
352.9681862169
 20
200.9255019674
 10
351.1907924622
 20
201.8228143994
 10
349.3459213271
 20
202.6735279862
 10
347.4372356325
 20
203.4759537146
 10
345.4685248973
 20
204.2284984428
 10
343.4436978142
 20
204.9296680629
 10
341.3667744901
 20
205.5780704673
 10
339.241878464
 20
206.1724183133
 10
337.0732285202
 20
206.711531578
 10
334.8651303125
 20
207.1943399022
 10
332.6219678154
 20
207.6198847145
 10
330.3481946205
 20
207.987321135
 10
328.048325094
 20
208.2959196529
 10
325.7269254139
 20
208.5450675742
 10
323.3886045045
 20
208.734270239
 10
321.0380048854
 20
208.8631520027
 10
318.6797934545
 20
208.9314569825
 10
316.3186522225
 20
208.9390495654
 10
313.9592690167
 20
208.8859146768
 10
311.606328174
 20
208.7721578112
 10
309.2645012407
 20
208.5980048224
 10
306.9384376973
 20
208.3638014749
 10
304.6327557278
 20
208.0700127578
 10
302.3520330502
 20
207.7172219614
 10
300.1007978284
 20
207.3061295193
 10
297.8835196815
 20
206.8375516173
 10
295.7046008099
 20
206.3124185736
 10
293.5683672554
 20
205.7317729912
 10
291.4790603121
 20
205.0967676881
 10
289.4408281054
 20
204.4086634086
 10
287.4577173568
 20
203.6688263201
 10
285.5336653489
 20
202.8787253005
 10
283.6724921091
 20
202.0399290224
 10
281.8778928245
 20
201.1541028382
 10
280.1534305059
 20
200.2230054736
 10
278.5025289136
 20
199.2484855364
 10
276.9284657598
 20
198.2324778456
 10
275.4343662012
 20
197.1769995906
 10
274.0231966344
 20
196.0841463256
 10
272.6977588057
 20
194.9560878096
 10
271.4606842493
 20
193.7950636985
 10
270.3144290622
 20
192.6033790981
 10
269.261269028
 20
191.383399988
 10
268.3032950985
 20
190.1375485236
 10
267.4424092423
 20
188.8682982278
 10
266.6803206684
 20
187.5781690795
 10
266.0185424333
 20
186.2697225107
 10
265.4583884363
 20
184.9455563211
 10
265.0009708114
 20
183.6082995199
 10
264.6471977189
 20
182.2606071068
 10
264.3977715426
 20
180.9051548003
 10
264.2531874949
 20
179.5446337255
 10
264.2140903913
 20
178.5562783617
  0
LWPOLYLINE
  5
241
330
1F
100
AcDbEntity
  8
0
  6
Continuous
 62
     7
370
    25
100
AcDbPolyline
 90
       19
 70
   128
 43
0.0
 10
370.1941615563
 20
178.5562783618
 10
370.1747906587
 20
179.2040278627
 10
370.0564701428
 20
180.5653943442
 10
369.8332161899
 20
181.9223666204
 10
369.5054720499
 20
183.2722505483
 10
369.0738884285
 20
184.6123660585
 10
368.5393221951
 20
185.9400524755
 10
367.9028346814
 20
187.252673801
 10
367.1656895744
 20
188.5476239468
 10
366.3293504076
 20
189.8223319092
 10
365.3954776549
 20
191.0742668735
 10
364.3659254342
 20
192.3009432389
 10
363.2427378263
 20
193.4999255528
 10
362.028144816
 20
194.668833347
 10
360.7245578654
 20
195.8053458631
 10
359.3345651257
 20
196.9072066608
 10
357.8609262989
 20
197.9722280975
 10
356.3065671584
 20
198.9982956716
 10
354.6745737405
 20
199.983372221
  0
LWPOLYLINE
  5
242
330
1F
100
AcDbEntity
  8
0
  6
Continuous
 62
     7
370
    25
100
AcDbPolyline
 90
       14
 70
   128
 43
0.0
 10
279.7336782071
 20
185.6939080276
 10
278.1016847891
 20
184.7088314782
 10
276.5473256486
 20
183.682763904
 10
275.0736868218
 20
182.6177424674
 10
273.6836940821
 20
181.5158816697
 10
272.3801071316
 20
180.3793691536
 10
271.1655141213
 20
179.2104613594
 10
270.0423265133
 20
178.0114790455
 10
269.0127742926
 20
176.7848026801
 10
268.0789015399
 20
175.5328677157
 10
267.2425623731
 20
174.2581597534
 10
266.5054172662
 20
172.9632096076
 10
265.8689297524
 20
171.6505882821
 10
265.7646834774
 20
171.411546265
  0
LWPOLYLINE
  5
243
330
1F
100
AcDbEntity
  8
0
  6
Continuous
 62
     7
370
    25
100
AcDbPolyline
 90
       49
 70
   128
 43
0.0
 10
368.6435684701
 20
171.411546265
 10
368.3897095143
 20
171.9802583173
 10
367.7279312791
 20
173.2887048861
 10
366.9658427053
 20
174.5788340344
 10
366.104956849
 20
175.8480843302
 10
365.1469829195
 20
177.0939357945
 10
364.0938228853
 20
178.3139149047
 10
362.9475676983
 20
179.5055995051
 10
361.7104931419
 20
180.6666236162
 10
360.3850553132
 20
181.7946821321
 10
358.9738857463
 20
182.8875353971
 10
357.4797861878
 20
183.9430136522
 10
355.905723034
 20
184.959021343
 10
354.2548214416
 20
185.9335412802
 10
352.530359123
 20
186.8646386447
 10
350.7357598384
 20
187.750464829
 10
348.8745865986
 20
188.5892611071
 10
346.9505345908
 20
189.3793621266
 10
344.9674238421
 20
190.1191992152
 10
342.9291916354
 20
190.8073034947
 10
340.8398846921
 20
191.4423087977
 10
338.7036511376
 20
192.0229543802
 10
336.5247322661
 20
192.5480874239
 10
334.3074541191
 20
193.0166653259
 10
332.0562188973
 20
193.427757768
 10
329.7754962197
 20
193.7805485644
 10
327.4698142502
 20
194.0743372814
 10
325.1437507069
 20
194.3085406289
 10
322.8019237735
 20
194.4826936178
 10
320.4489829308
 20
194.5964504834
 10
318.089599725
 20
194.649585372
 10
315.728458493
 20
194.6419927891
 10
313.3702470622
 20
194.5736878092
 10
311.019647443
 20
194.4448060455
 10
308.6813265336
 20
194.2556033808
 10
306.3599268535
 20
194.0064554595
 10
304.060057327
 20
193.6978569416
 10
301.7862841321
 20
193.330420521
 10
299.5431216351
 20
192.9048757088
 10
297.3350234273
 20
192.4220673846
 10
295.1663734835
 20
191.8829541198
 10
293.0414774574
 20
191.2886062739
 10
290.9645541333
 20
190.6402038694
 10
288.9397270503
 20
189.9390342494
 10
286.971016315
 20
189.1864895212
 10
285.0623306204
 20
188.3840637927
 10
283.2174594854
 20
187.533350206
 10
281.4400657306
 20
186.636037774
 10
279.7336782071
 20
185.6939080276
  0
LWPOLYLINE
  5
244
330
1F
100
AcDbEntity
  8
0
  6
Continuous
 62
     7
370
    25
100
AcDbPolyline
 90
       49
 70
   128
 43
0.0
 10
354.6745737405
 20
185.2856376221
 10
352.9681862169
 20
186.2277673685
 10
351.1907924622
 20
187.1250798004
 10
349.3459213271
 20
187.9757933872
 10
347.4372356325
 20
188.7782191157
 10
345.4685248973
 20
189.5307638439
 10
343.4436978142
 20
190.2319334639
 10
341.3667744901
 20
190.8803358684
 10
339.241878464
 20
191.4746837143
 10
337.0732285202
 20
192.0137969791
 10
334.8651303125
 20
192.4966053032
 10
332.6219678154
 20
192.9221501155
 10
330.3481946205
 20
193.2895865361
 10
328.048325094
 20
193.5981850539
 10
325.7269254139
 20
193.8473329753
 10
323.3886045045
 20
194.03653564
 10
321.0380048854
 20
194.1654174037
 10
318.6797934545
 20
194.2337223836
 10
316.3186522225
 20
194.2413149664
 10
313.9592690167
 20
194.1881800779
 10
311.606328174
 20
194.0744232123
 10
309.2645012407
 20
193.9002702234
 10
306.9384376973
 20
193.6660668759
 10
304.6327557278
 20
193.3722781588
 10
302.3520330502
 20
193.0194873625
 10
300.1007978284
 20
192.6083949203
 10
297.8835196815
 20
192.1398170184
 10
295.7046008099
 20
191.6146839746
 10
293.5683672554
 20
191.0340383922
 10
291.4790603121
 20
190.3990330891
 10
289.4408281054
 20
189.7109288096
 10
287.4577173568
 20
188.9710917211
 10
285.5336653489
 20
188.1809907016
 10
283.6724921091
 20
187.3421944235
 10
281.8778928245
 20
186.4563682392
 10
280.1534305059
 20
185.5252708747
 10
278.5025289136
 20
184.5507509374
 10
276.9284657598
 20
183.5347432467
 10
275.4343662012
 20
182.4792649916
 10
274.0231966344
 20
181.3864117266
 10
272.6977588057
 20
180.2583532107
 10
271.4606842493
 20
179.0973290996
 10
270.3144290622
 20
177.9056444992
 10
269.261269028
 20
176.685665389
 10
268.3032950985
 20
175.4398139246
 10
267.4424092423
 20
174.1705636288
 10
266.6803206684
 20
172.8804344805
 10
266.0185424333
 20
171.5719879118
 10
265.8534854935
 20
171.2074110622
  0
ARC
  5
245
330
1F
100
AcDbEntity
  8
0
  6
Continuous
 62
     7
370
    25
100
AcDbCircle
 10
339.9702682374
 20
156.9065872622
 30
0.0
 40
31.96227619633565
100
AcDbArc
 50
26.5787994595
 51
62.609544221
  0
LINE
  5
246
330
1F
100
AcDbEntity
  8
0
  6
Continuous
 62
     8
370
    18
100
AcDbLine
 10
361.5552088916
 20
141.8640333449
 30
0.0
 11
361.3653035445
 21
141.746685267
 31
0.0
  0
SPLINE
  5
247
330
1F
100
AcDbEntity
  8
0
  6
Continuous
 62
     8
370
    18
100
AcDbSpline
210
0.0
220
0.0
230
1.0
 70
     8
 71
     3
 72
    10
 73
     6
 74
     0
 42
0.000000001
 43
0.00000001
 40
0.0
 40
0.0
 40
0.0
 40
0.0
 40
0.5
 40
0.5
 40
1.0
 40
1.0
 40
1.0
 40
1.0
 10
361.3653035445309
 20
141.7466852669645
 30
0.0
 10
349.6533625087446
 20
134.9855256223347
 30
0.0
 10
333.7673118282885
 20
131.1868468333791
 30
0.0
 10
300.6409401192427
 20
131.1868468333792
 30
0.0
 10
284.7548894387866
 20
134.9855256223347
 30
0.0
 10
273.0429484030003
 20
141.7466852669646
 30
0.0
  0
ARC
  5
248
330
1F
100
AcDbEntity
  8
0
  6
Continuous
 62
     8
370
    18
100
AcDbCircle
 10
295.9401270454
 20
178.9044203228
 30
0.0
 40
45.62879494259648
100
AcDbArc
 50
223.9677131952
 51
240.7247645434
  0
LWPOLYLINE
  5
249
330
1F
100
AcDbEntity
  8
0
  6
Continuous
 62
     8
370
    18
100
AcDbPolyline
 90
       46
 70
   128
 43
0.0
 10
371.3085892189
 20
147.2264969159
 10
370.144873932
 20
146.0485880842
 10
368.7960187755
 20
144.8011690486
 10
367.3590197356
 20
143.5869944382
 10
365.836331901
 20
142.40813865
 10
364.2305567584
 20
141.2666157392
 10
362.5444377477
 20
140.1643759787
 10
360.7808555749
 20
139.1033025265
 10
358.9428232905
 20
138.0852082088
 10
357.0334811419
 20
137.1118324228
 10
355.0560912081
 20
136.1848381646
 10
353.0140318267
 20
135.3058091884
 10
350.9107918218
 20
134.4762473004
 10
348.7499645437
 20
133.6975697932
 10
346.5352417296
 20
132.9711070242
 10
344.2704071963
 20
132.2981001429
 10
341.9593303755
 20
131.6796989704
 10
339.6059597032
 20
131.1169600345
 10
337.2143158738
 20
130.6108447653
 10
334.7884849706
 20
130.1622178524
 10
332.3326114851
 20
129.7718457672
 10
329.8508912358
 20
129.4403954538
 10
327.3475642002
 20
129.1684331897
 10
324.8269072706
 20
128.9564236178
 10
322.293226947
 20
128.8047289528
 10
319.7508519797
 20
128.7136083625
 10
317.2041259738
 20
128.683217525
 10
314.6573999678
 20
128.7136083625
 10
312.1150250006
 20
128.8047289528
 10
309.581344677
 20
128.9564236178
 10
307.0606877473
 20
129.1684331897
 10
304.5573607117
 20
129.4403954538
 10
302.0756404625
 20
129.7718457672
 10
299.6197669769
 20
130.1622178524
 10
297.1939360737
 20
130.6108447653
 10
294.8022922443
 20
131.1169600345
 10
292.4489215721
 20
131.6796989704
 10
290.1378447513
 20
132.2981001429
 10
287.8730102179
 20
132.9711070242
 10
285.6582874038
 20
133.6975697932
 10
283.4974601258
 20
134.4762473004
 10
281.3942201209
 20
135.3058091884
 10
279.3521607394
 20
136.1848381646
 10
277.3747708057
 20
137.1118324228
 10
275.4654286571
 20
138.0852082088
 10
273.6273963727
 20
139.1033025265
  0
SPLINE
  5
24A
330
1F
100
AcDbEntity
  8
0
  6
Continuous
 62
     7
370
    25
100
AcDbSpline
210
0.0
220
0.0
230
1.0
 70
     8
 71
     3
 72
    14
 73
    10
 74
     0
 42
0.000000001
 43
0.00000001
 40
0.0
 40
0.0
 40
0.0
 40
0.0
 40
0.25
 40
0.25
 40
0.5
 40
0.5
 40
0.75
 40
0.75
 40
1.0
 40
1.0
 40
1.0
 40
1.0
 10
191.8216767681841
 20
228.7833482641067
 30
0.0
 10
191.9537942910393
 20
228.7833482641068
 30
0.0
 10
192.0829875071038
 20
228.7291475044258
 30
0.0
 10
192.2674850675069
 20
228.544643547284
 30
0.0
 10
192.3215885251925
 20
228.4141044257703
 30
0.0
 10
192.321764781847
 20
228.1532678392425
 30
0.0
 10
192.2687464420516
 20
228.0234481698944
 30
0.0
 10
192.0822320186909
 20
227.8366601027388
 30
0.0
 10
191.9537942910393
 20
227.7833482651266
 30
0.0
 10
191.8216767681841
 20
227.7833482651267
 30
0.0
  0
LINE
  5
24B
330
1F
100
AcDbEntity
  8
0
  6
Continuous
 62
     7
370
    25
100
AcDbLine
 10
191.8216767682
 20
227.7833482651
 30
0.0
 11
191.7053402623
 21
227.7833482651
 31
0.0
  0
LINE
  5
24C
330
1F
100
AcDbEntity
  8
0
  6
Continuous
 62
     7
370
    25
100
AcDbLine
 10
191.7053402623
 20
227.7833482651
 30
0.0
 11
190.995142523
 21
225.1328542185
 31
0.0
  0
ARC
  5
24D
330
1F
100
AcDbEntity
  8
0
  6
Continuous
 62
     7
370
    25
100
AcDbCircle
 10
190.0292166977
 20
225.3916732634
 30
0.0
 40
0.9999999989800017
100
AcDbArc
 50
270.0
 51
345.0
  0
LINE
  5
24E
330
1F
100
AcDbEntity
  8
0
  6
Continuous
 62
     7
370
    25
100
AcDbLine
 10
190.0292166977
 20
224.3916732644
 30
0.0
 11
182.3595559371
 21
224.3916732644
 31
0.0
  0
LINE
  5
24F
330
1F
100
AcDbEntity
  8
0
  6
Continuous
 62
     7
370
    25
100
AcDbLine
 10
182.3595559371
 20
224.8916732639
 30
0.0
 11
182.3595559371
 21
224.3916732644
 31
0.0
  0
LINE
  5
250
330
1F
100
AcDbEntity
  8
0
  6
Continuous
 62
     7
370
    25
100
AcDbLine
 10
187.8595559315
 20
228.8916732598
 30
0.0
 11
182.3595559371
 21
224.8916732639
 31
0.0
  0
LINE
  5
251
330
1F
100
AcDbEntity
  8
0
  6
Continuous
 62
     7
370
    25
100
AcDbLine
 10
187.8595559315
 20
242.391673246
 30
0.0
 11
187.8595559315
 21
228.8916732598
 31
0.0
  0
LINE
  5
252
330
1F
100
AcDbEntity
  8
0
  6
Continuous
 62
     7
370
    25
100
AcDbLine
 10
187.8595559315
 20
242.391673246
 30
0.0
 11
182.3595559371
 21
242.391673246
 31
0.0
  0
LINE
  5
253
330
1F
100
AcDbEntity
  8
0
  6
Continuous
 62
     7
370
    25
100
AcDbLine
 10
182.3595559371
 20
242.8916732455
 30
0.0
 11
182.3595559371
 21
242.391673246
 31
0.0
  0
LINE
  5
254
330
1F
100
AcDbEntity
  8
0
  6
Continuous
 62
     7
370
    25
100
AcDbLine
 10
187.3683404581
 20
246.391673242
 30
0.0
 11
182.3595559371
 21
242.8916732455
 31
0.0
  0
LINE
  5
255
330
1F
100
AcDbEntity
  8
0
  6
Continuous
 62
     7
370
    25
100
AcDbLine
 10
187.3683404581
 20
246.391673242
 30
0.0
 11
200.3683404448
 21
246.391673242
 31
0.0
  0
LINE
  5
256
330
1F
100
AcDbEntity
  8
0
  6
Continuous
 62
     7
370
    25
100
AcDbLine
 10
200.3683404448
 20
246.391673242
 30
0.0
 11
201.8683404433
 21
244.8916732435
 31
0.0
  0
LINE
  5
257
330
1F
100
AcDbEntity
  8
0
  6
Continuous
 62
     7
370
    25
100
AcDbLine
 10
201.8683404433
 20
244.8916732435
 30
0.0
 11
201.8683404433
 21
238.3916732501
 31
0.0
  0
LINE
  5
258
330
1F
100
AcDbEntity
  8
0
  6
Continuous
 62
     7
370
    25
100
AcDbLine
 10
201.8683404433
 20
238.3916732501
 30
0.0
 11
200.3683404448
 21
236.8916732517
 31
0.0
  0
LINE
  5
259
330
1F
100
AcDbEntity
  8
0
  6
Continuous
 62
     7
370
    25
100
AcDbLine
 10
200.3683404448
 20
236.8916732517
 30
0.0
 11
196.8458521483
 21
236.8916732517
 31
0.0
  0
ARC
  5
25A
330
1F
100
AcDbEntity
  8
0
  6
Continuous
 62
     7
370
    25
100
AcDbCircle
 10
196.8458521483
 20
237.3916732511
 30
0.0
 40
0.4999999994900008
100
AcDbArc
 50
190.0
 51
270.0
  0
LINE
  5
25B
330
1F
100
AcDbEntity
  8
0
  6
Continuous
 62
     7
370
    25
100
AcDbLine
 10
195.3683404499
 20
242.8916732455
 30
0.0
 11
196.3534482722
 21
237.3048491624
 31
0.0
  0
LINE
  5
25C
330
1F
100
AcDbEntity
  8
0
  6
Continuous
 62
     7
370
    25
100
AcDbLine
 10
195.3683404499
 20
242.8916732455
 30
0.0
 11
194.3683404509
 21
242.8916732455
 31
0.0
  0
LINE
  5
25D
330
1F
100
AcDbEntity
  8
0
  6
Continuous
 62
     7
370
    25
100
AcDbLine
 10
194.3683404509
 20
242.8916732455
 30
0.0
 11
194.3683404509
 21
237.8916732506
 31
0.0
  0
ARC
  5
25E
330
1F
100
AcDbEntity
  8
0
  6
Continuous
 62
     7
370
    25
100
AcDbCircle
 10
193.368340452
 20
237.8916732506
 30
0.0
 40
0.9999999989810249
100
AcDbArc
 50
291.3236862635
 51
0.0
  0
ARC
  5
25F
330
1F
100
AcDbEntity
  8
0
  6
Continuous
 62
     7
370
    25
100
AcDbCircle
 10
195.3683404499
 20
232.7681978729
 30
0.0
 40
4.499999995410163
100
AcDbArc
 50
111.3236862635
 51
180.0
  0
LINE
  5
260
330
1F
100
AcDbEntity
  8
0
  6
Continuous
 62
     7
370
    25
100
AcDbLine
 10
190.8683404545
 20
232.7681978729
 30
0.0
 11
190.8683404545
 21
231.2201003822
 31
0.0
  0
ARC
  5
261
330
1F
100
AcDbEntity
  8
0
  6
Continuous
 62
     7
370
    25
100
AcDbCircle
 10
195.3683404499
 20
231.2201003822
 30
0.0
 40
4.499999995410014
100
AcDbArc
 50
180.0
 51
212.7858409519
  0
LINE
  5
262
330
1F
100
AcDbEntity
  8
0
  6
Continuous
 62
     7
370
    25
100
AcDbLine
 10
191.5851884475
 20
228.7833482641
 30
0.0
 11
191.8216767682
 21
228.7833482641
 31
0.0
  0
ARC
  5
263
330
1F
100
AcDbEntity
  8
0
  6
Continuous
 62
     7
370
    25
100
AcDbCircle
 10
63.3683405846
 20
232.7681978729
 30
0.0
 40
4.499999995410155
100
AcDbArc
 50
0.0
 51
68.6763137365
  0
ARC
  5
264
330
1F
100
AcDbEntity
  8
0
  6
Continuous
 62
     7
370
    25
100
AcDbCircle
 10
65.3683405825
 20
237.8916732506
 30
0.0
 40
0.9999999989809965
100
AcDbArc
 50
180.0
 51
248.6763137365
  0
LINE
  5
265
330
1F
100
AcDbEntity
  8
0
  6
Continuous
 62
     7
370
    25
100
AcDbLine
 10
64.3683405835
 20
237.8916732506
 30
0.0
 11
64.3683405835
 21
242.8916732455
 31
0.0
  0
LINE
  5
266
330
1F
100
AcDbEntity
  8
0
  6
Continuous
 62
     7
370
    25
100
AcDbLine
 10
64.3683405835
 20
242.8916732455
 30
0.0
 11
63.3683405846
 21
242.8916732455
 31
0.0
  0
LINE
  5
267
330
1F
100
AcDbEntity
  8
0
  6
Continuous
 62
     7
370
    25
100
AcDbLine
 10
62.3832327622
 20
237.3048491624
 30
0.0
 11
63.3683405846
 21
242.8916732455
 31
0.0
  0
ARC
  5
268
330
1F
100
AcDbEntity
  8
0
  6
Continuous
 62
     7
370
    25
100
AcDbCircle
 10
61.8908288862
 20
237.3916732511
 30
0.0
 40
0.4999999994900027
100
AcDbArc
 50
270.0
 51
350.0
  0
LINE
  5
269
330
1F
100
AcDbEntity
  8
0
  6
Continuous
 62
     7
370
    25
100
AcDbLine
 10
58.3683405897
 20
236.8916732517
 30
0.0
 11
56.8683405912
 21
238.3916732501
 31
0.0
  0
LINE
  5
26A
330
1F
100
AcDbEntity
  8
0
  6
Continuous
 62
     7
370
    25
100
AcDbLine
 10
56.8683405912
 20
238.3916732501
 30
0.0
 11
56.8683405912
 21
244.8916732435
 31
0.0
  0
LINE
  5
26B
330
1F
100
AcDbEntity
  8
0
  6
Continuous
 62
     7
370
    25
100
AcDbLine
 10
56.8683405912
 20
244.8916732435
 30
0.0
 11
58.3683405897
 21
246.391673242
 31
0.0
  0
LINE
  5
26C
330
1F
100
AcDbEntity
  8
0
  6
Continuous
 62
     7
370
    25
100
AcDbLine
 10
58.3683405897
 20
246.391673242
 30
0.0
 11
71.3683405764
 21
246.391673242
 31
0.0
  0
LINE
  5
26D
330
1F
100
AcDbEntity
  8
0
  6
Continuous
 62
     7
370
    25
100
AcDbLine
 10
76.3771250974
 20
242.8916732455
 30
0.0
 11
71.3683405764
 21
246.391673242
 31
0.0
  0
LINE
  5
26E
330
1F
100
AcDbEntity
  8
0
  6
Continuous
 62
     7
370
    25
100
AcDbLine
 10
76.3771250974
 20
242.391673246
 30
0.0
 11
76.3771250974
 21
242.8916732455
 31
0.0
  0
LINE
  5
26F
330
1F
100
AcDbEntity
  8
0
  6
Continuous
 62
     7
370
    25
100
AcDbLine
 10
76.3771250974
 20
242.391673246
 30
0.0
 11
70.877125103
 21
242.391673246
 31
0.0
  0
LINE
  5
270
330
1F
100
AcDbEntity
  8
0
  6
Continuous
 62
     7
370
    25
100
AcDbLine
 10
70.877125103
 20
228.8916732598
 30
0.0
 11
70.877125103
 21
242.391673246
 31
0.0
  0
LINE
  5
271
330
1F
100
AcDbEntity
  8
0
  6
Continuous
 62
     7
370
    25
100
AcDbLine
 10
76.3771250974
 20
224.8916732639
 30
0.0
 11
70.877125103
 21
228.8916732598
 31
0.0
  0
LINE
  5
272
330
1F
100
AcDbEntity
  8
0
  6
Continuous
 62
     7
370
    25
100
AcDbLine
 10
76.3771250974
 20
224.3916732644
 30
0.0
 11
76.3771250974
 21
224.8916732639
 31
0.0
  0
ARC
  5
273
330
1F
100
AcDbEntity
  8
0
  6
Continuous
 62
     7
370
    25
100
AcDbCircle
 10
68.7074643368
 20
225.3916732634
 30
0.0
 40
0.9999999989800017
100
AcDbArc
 50
195.0
 51
270.0
  0
LINE
  5
274
330
1F
100
AcDbEntity
  8
0
  6
Continuous
 62
     7
370
    25
100
AcDbLine
 10
67.7415385115
 20
225.1328542185
 30
0.0
 11
67.0313407722
 21
227.7833482651
 31
0.0
  0
SPLINE
  5
275
330
1F
100
AcDbEntity
  8
0
  6
Continuous
 62
     7
370
    25
100
AcDbSpline
210
0.0
220
0.0
230
1.0
 70
     8
 71
     3
 72
    14
 73
    10
 74
     0
 42
0.000000001
 43
0.00000001
 40
0.0
 40
0.0
 40
0.0
 40
0.0
 40
0.25
 40
0.25
 40
0.5
 40
0.5
 40
0.75
 40
0.75
 40
1.0
 40
1.0
 40
1.0
 40
1.0
 10
66.91500426629857
 20
227.7833482651267
 30
0.0
 10
66.78288674344336
 20
227.7833482651267
 30
0.0
 10
66.65369352737895
 20
227.8375490248076
 30
0.0
 10
66.46919596697583
 20
228.0220529819494
 30
0.0
 10
66.41509250929026
 20
228.1525921034631
 30
0.0
 10
66.4149162526357
 20
228.4134286899908
 30
0.0
 10
66.46793459243105
 20
228.5432483593389
 30
0.0
 10
66.65444901579188
 20
228.7300364264947
 30
0.0
 10
66.78288674344337
 20
228.7833482641067
 30
0.0
 10
66.91500426629857
 20
228.7833482641067
 30
0.0
  0
ARC
  5
276
330
1F
100
AcDbEntity
  8
0
  6
Continuous
 62
     7
370
    25
100
AcDbCircle
 10
63.3683405846
 20
231.2201003822
 30
0.0
 40
4.499999995410008
100
AcDbArc
 50
327.2141590481
 51
0.0
  0
LINE
  5
277
330
1F
100
AcDbEntity
  8
0
  6
Continuous
 62
     7
370
    25
100
AcDbLine
 10
67.86834058
 20
231.2201003822
 30
0.0
 11
67.86834058
 21
232.7681978729
 31
0.0
  0
LINE
  5
278
330
1F
100
AcDbEntity
  8
0
  6
Continuous
 62
     7
370
    25
100
AcDbLine
 10
66.9148734333
 20
228.7833482641
 30
0.0
 11
67.151492587
 21
228.7833482641
 31
0.0
  0
LINE
  5
279
330
1F
100
AcDbEntity
  8
0
  6
Continuous
 62
     7
370
    25
100
AcDbLine
 10
67.0313407722
 20
227.7833482651
 30
0.0
 11
66.9148834362
 21
227.7833482651
 31
0.0
  0
LINE
  5
27A
330
1F
100
AcDbEntity
  8
0
  6
Continuous
 62
     7
370
    25
100
AcDbLine
 10
61.8906879302
 20
236.8916732517
 30
0.0
 11
58.3683405897
 21
236.8916732517
 31
0.0
  0
LINE
  5
27B
330
1F
100
AcDbEntity
  8
0
  6
Continuous
 62
     7
370
    25
100
AcDbLine
 10
76.3771250974
 20
224.3916732644
 30
0.0
 11
68.7073471183
 21
224.3916732644
 31
0.0
  0
SPLINE
  5
27C
330
1F
100
AcDbEntity
  8
0
  6
Continuous
 62
     7
370
    25
100
AcDbSpline
210
0.0
220
0.0
230
1.0
 70
    24
 71
     3
 72
    14
 73
    10
 74
     0
 42
0.000000001
 43
0.00000001
 40
0.0
 40
0.0
 40
0.0
 40
0.0
 40
0.1459689986005079
 40
0.2917930559125091
 40
0.4377731048743848
 40
0.5907368613619581
 40
0.7435382913461104
 40
0.8965238053044855
 40
1.0
 40
1.0
 40
1.0
 40
1.0
 10
196.8458521482532
 20
236.8916732516537
 30
0.0
 10
196.8325219758121
 20
236.8916732516537
 30
0.0
 10
196.8058748672498
 20
236.8916732516537
 30
0.0
 10
196.5898968394908
 20
236.8916732516537
 30
0.0
 10
196.2391789038888
 20
236.8916732516537
 30
0.0
 10
195.7374580974792
 20
236.8916732516537
 30
0.0
 10
195.0703089981824
 20
236.8916732516537
 30
0.0
 10
194.3690665752387
 20
236.8916732516537
 30
0.0
 10
193.8085556981405
 20
236.8916732516537
 30
0.0
 10
193.5824029014833
 20
236.8916732516537
 30
0.0
  0
SPLINE
  5
27D
330
1F
100
AcDbEntity
  8
0
  6
Continuous
 62
     7
370
    25
100
AcDbSpline
210
0.0
220
0.0
230
1.0
 70
    24
 71
     3
 72
    13
 73
     9
 74
     0
 42
0.000000001
 43
0.00000001
 40
0.0
 40
0.0
 40
0.0
 40
0.0
 40
0.0993010980965369
 40
0.2545818958692344
 40
0.4100546347345361
 40
0.6080564069200696
 40
0.8059828350208604
 40
1.0
 40
1.0
 40
1.0
 40
1.0
 10
65.1277471391976
 20
236.8916732516537
 30
0.0
 10
64.91534873163833
 20
236.8916732516537
 30
0.0
 10
64.37081508284147
 20
236.8916732516537
 30
0.0
 10
63.66427161041889
 20
236.8916732516537
 30
0.0
 10
62.92879962961645
 20
236.8916732516536
 30
0.0
 10
62.34987453420393
 20
236.8916732516537
 30
0.0
 10
61.96194951236164
 20
236.8916732516537
 30
0.0
 10
61.91428331598814
 20
236.8916732516537
 30
0.0
 10
61.89068793020047
 20
236.8916732516537
 30
0.0
  0
LINE
  5
27E
330
1F
100
AcDbEntity
  8
0
  6
Continuous
 62
     7
370
    25
100
AcDbLine
 10
182.3595559371
 20
224.8916732639
 30
0.0
 11
76.3771250974
 21
224.8916732639
 31
0.0
  0
LINE
  5
27F
330
1F
100
AcDbEntity
  8
0
  6
Continuous
 62
     7
370
    25
100
AcDbLine
 10
182.3595559371
 20
224.3916732644
 30
0.0
 11
76.3771250974
 21
224.3916732644
 31
0.0
  0
LINE
  5
280
330
1F
100
AcDbEntity
  8
0
  6
Continuous
 62
     7
370
    25
100
AcDbLine
 10
187.8595559315
 20
228.8916732598
 30
0.0
 11
70.877125103
 21
228.8916732598
 31
0.0
  0
LINE
  5
281
330
1F
100
AcDbEntity
  8
0
  6
Continuous
 62
     7
370
    25
100
AcDbLine
 10
182.3595559371
 20
242.8916732455
 30
0.0
 11
76.3771250974
 21
242.8916732455
 31
0.0
  0
LINE
  5
282
330
1F
100
AcDbEntity
  8
0
  6
Continuous
 62
     7
370
    25
100
AcDbLine
 10
182.3595559371
 20
242.391673246
 30
0.0
 11
76.3771250974
 21
242.391673246
 31
0.0
  0
LINE
  5
283
330
1F
100
AcDbEntity
  8
0
  6
Continuous
 62
     7
370
    25
100
AcDbLine
 10
71.3683405764
 20
246.391673242
 30
0.0
 11
187.3683404581
 21
246.391673242
 31
0.0
  0
LINE
  5
284
330
1F
100
AcDbEntity
  8
0
  6
Continuous
 62
     8
370
    18
100
AcDbLine
 10
196.3534482722
 20
237.3048491624
 30
0.0
 11
194.1780549
 21
237.3048491624
 31
0.0
  0
LINE
  5
285
330
1F
100
AcDbEntity
  8
0
  6
Continuous
 62
     8
370
    18
100
AcDbLine
 10
64.5586261344
 20
237.3048491624
 30
0.0
 11
62.3832327622
 21
237.3048491624
 31
0.0
  0
HATCH
  5
286
330
1F
100
AcDbEntity
  8
0
  6
Continuous
 62
     7
370
    18
100
AcDbHatch
 10
0.0
 20
0.0
 30
0.0
210
0.0
220
0.0
230
1.0
  2
DIN 128 Elastomer-Gummi
 70
     0
 71
     0
 91
        1
 92
        0
 93
       25
 72
     1
 10
191.8216767681842
 20
228.7833482641067
 11
191.585188447459
 21
228.7833482641067
 72
     2
 10
195.368340449921
 20
231.2201003821847
 40
4.49999999541001
 50
147.2141590481339
 51
180.0
 73
     0
 72
     1
 10
190.8683404545111
 20
231.2201003821847
 11
190.868340454511
 21
232.7681978728797
 72
     2
 10
195.368340449921
 20
232.7681978728797
 40
4.49999999541001
 50
180.0
 51
248.6763137365015
 73
     0
 72
     2
 10
193.368340451961
 20
237.8916732506337
 40
0.9999999989799991
 50
291.3236862634891
 51
360.0000000000008
 73
     1
 72
     1
 10
194.3683404509421
 20
237.8916732506337
 11
194.3683404509421
 21
242.8916732455337
 72
     1
 10
194.3683404509421
 20
242.8916732455337
 11
195.3683404499212
 21
242.8916732455337
 72
     1
 10
195.3683404499212
 20
242.8916732455337
 11
196.3534482722491
 21
237.3048491623986
 72
     2
 10
196.8458521482529
 20
237.3916732511437
 40
0.49999999949
 50
190.0000000000194
 51
270.0000000000301
 73
     1
 72
     1
 10
196.8458521482532
 20
236.8916732516537
 11
200.3683404448212
 21
236.8916732516537
 72
     1
 10
200.3683404448211
 20
236.8916732516537
 11
201.8683404432915
 21
238.3916732501237
 72
     1
 10
201.8683404432915
 20
238.3916732501237
 11
201.8683404432913
 21
244.8916732434939
 72
     1
 10
201.8683404432913
 20
244.8916732434939
 11
200.3683404448212
 21
246.3916732419637
 72
     1
 10
200.3683404448212
 20
246.3916732419637
 11
187.3683404580812
 21
246.3916732419637
 72
     1
 10
187.3683404580812
 20
246.3916732419637
 11
182.3595559370992
 21
242.8916732455337
 72
     1
 10
182.3595559370992
 20
242.8916732455337
 11
182.3595559370993
 21
242.3916732460437
 72
     1
 10
182.3595559370993
 20
242.3916732460437
 11
187.8595559314894
 21
242.3916732460437
 72
     1
 10
187.8595559314894
 20
242.3916732460437
 11
187.8595559314894
 21
228.8916732598138
 72
     1
 10
187.8595559314894
 20
228.8916732598138
 11
182.3595559370999
 21
224.8916732638938
 72
     1
 10
182.3595559370999
 20
224.8916732638938
 11
182.3595559370998
 21
224.3916732644037
 72
     1
 10
182.3595559370998
 20
224.3916732644037
 11
190.0292166976631
 21
224.3916732644037
 72
     2
 10
190.0292166976636
 20
225.3916732633837
 40
0.9999999989799991
 50
270.0000000000008
 51
345.0000000000269
 73
     1
 72
     1
 10
190.9951425229675
 20
225.1328542185456
 11
191.7053402622921
 21
227.7833482651267
 72
     1
 10
191.7053402622921
 20
227.7833482651267
 11
191.8216767681841
 21
227.7833482651267
 72
     4
 94
        3
 73
     1
 74
     0
 95
       35
 96
       31
 40
0.0
 40
0.0
 40
0.0
 40
0.0
 40
0.0000526113456755
 40
0.0000526113456755
 40
0.0000526113456755
 40
0.0002226783720125
 40
0.0002226783720125
 40
0.0002226783720125
 40
0.0003927453983494
 40
0.0003927453983494
 40
0.0003927453983494
 40
0.0005628124246864
 40
0.0005628124246864
 40
0.0005628124246864
 40
0.0007328794510234
 40
0.0007328794510234
 40
0.0007328794510234
 40
0.0009029464773603
 40
0.0009029464773603
 40
0.0009029464773603
 40
0.0010730135036973
 40
0.0010730135036973
 40
0.0010730135036973
 40
0.0012430805300343
 40
0.0012430805300343
 40
0.0012430805300343
 40
0.0014131475563668
 40
0.0014131475563668
 40
0.0014131475563668
 40
0.0015832145826994
 40
0.0015832145826994
 40
0.0015832145826994
 40
0.0015832145826994
 10
191.8216767681841
 20
227.7833482651267
 42
1.0
 10
191.8392138834093
 20
227.7833482651267
 42
1.0
 10
191.8567752191404
 20
227.7842734719844
 42
1.0
 10
191.8742152505197
 20
227.7861162188233
 42
1.0
 10
191.9298673459223
 20
227.7919965249217
 42
1.0
 10
191.9852716746026
 20
227.8075663399847
 42
1.0
 10
192.0358401800135
 20
227.8315363208572
 42
1.0
 10
192.0864086854243
 20
227.8555063017297
 42
1.0
 10
192.1335361093811
 20
227.8885375700795
 42
1.0
 10
192.1733198094156
 20
227.9278947922132
 42
1.0
 10
192.2131035094501
 20
227.9672520143469
 42
1.0
 10
192.2466407691296
 20
228.0140207110445
 42
1.0
 10
192.2711543533985
 20
228.0643279461982
 42
1.0
 10
192.2956679376674
 20
228.1146351813519
 42
1.0
 10
192.3118339614463
 20
228.1698684906207
 42
1.0
 10
192.3183137092774
 20
228.2254539796494
 42
1.0
 10
192.3247934571085
 20
228.2810394686781
 42
1.0
 10
192.3217656484373
 20
228.3385102538847
 42
1.0
 10
192.3094810174164
 20
228.3931071545586
 42
1.0
 10
192.2971963863955
 20
228.4477040552325
 42
1.0
 10
192.2753161077337
 20
228.5009329213043
 42
1.0
 10
192.2456520968202
 20
228.5483858472313
 42
1.0
 10
192.2159880859067
 20
228.5958387731584
 42
1.0
 10
192.1777221726948
 20
228.6388245692272
 42
1.0
 10
192.1340231740952
 20
228.6737835629757
 42
1.0
 10
192.0903241754966
 20
228.7087425567232
 42
1.0
 10
192.0399868191748
 20
228.7366389603616
 42
1.0
 10
191.9871795634925
 20
228.7551626605768
 42
1.0
 10
191.9343723078102
 20
228.773686360792
 42
1.0
 10
191.8776386634555
 20
228.7833482641067
 42
1.0
 10
191.8216767681841
 20
228.7833482641067
 42
1.0
 97
        0
 75
     0
 76
     2
 52
0.0
 41
0.25
 77
     0
 78
     3
 53
45.00000209717174
 43
1.683798
 44
1.683798
 45
1.122531891871035
 46
3.367596086488466
 79
     2
 49
1.5875
 49
-3.175
 53
45.00000209717174
 43
3.9288625
 44
1.683798
 45
1.122531891871035
 46
3.367596086488466
 79
     2
 49
1.5875
 49
-3.175
 53
134.9999719140475
 43
0.0
 44
0.0
 45
-1.12253256539011
 46
-1.122531464876908
 79
     0
 98
        1
 10
0.0
 20
0.0
  0
HATCH
  5
287
330
1F
100
AcDbEntity
  8
0
  6
Continuous
 62
     7
370
    18
100
AcDbHatch
 10
0.0
 20
0.0
 30
0.0
210
0.0
220
0.0
230
1.0
  2
DIN 128 Elastomer-Gummi
 70
     0
 71
     0
 91
        1
 92
        0
 93
       25
 72
     1
 10
67.86834057997167
 20
232.7681978728797
 11
67.86834057997166
 21
231.2201003821847
 72
     2
 10
63.36834058456166
 20
231.2201003821847
 40
4.49999999541001
 50
0.0
 51
32.78584095186616
 73
     0
 72
     1
 10
67.15149258702368
 20
228.7833482641067
 11
66.91487343331323
 21
228.7833482641067
 72
     4
 94
        3
 73
     1
 74
     0
 95
       35
 96
       31
 40
0.0
 40
0.0
 40
0.0
 40
0.0
 40
0.0000526113456755
 40
0.0000526113456755
 40
0.0000526113456755
 40
0.0002226783720125
 40
0.0002226783720125
 40
0.0002226783720125
 40
0.0003927453983494
 40
0.0003927453983494
 40
0.0003927453983494
 40
0.0005628124246864
 40
0.0005628124246864
 40
0.0005628124246864
 40
0.0007328794510234
 40
0.0007328794510234
 40
0.0007328794510234
 40
0.0009029464773603
 40
0.0009029464773603
 40
0.0009029464773603
 40
0.0010730135036973
 40
0.0010730135036973
 40
0.0010730135036973
 40
0.0012430805300343
 40
0.0012430805300343
 40
0.0012430805300343
 40
0.0014131475563668
 40
0.0014131475563668
 40
0.0014131475563668
 40
0.0015832145826994
 40
0.0015832145826994
 40
0.0015832145826994
 40
0.0015832145826994
 10
66.91487343331323
 20
228.7833482641067
 42
1.0
 10
66.8974671510734
 20
228.7833482641067
 42
1.0
 10
66.87990581534228
 20
228.7824230572489
 42
1.0
 10
66.86246578396305
 20
228.7805803104101
 42
1.0
 10
66.80681368856041
 20
228.7747000043116
 42
1.0
 10
66.75140935988013
 20
228.7591301892487
 42
1.0
 10
66.70084085446928
 20
228.7351602083762
 42
1.0
 10
66.65027234905841
 20
228.7111902275037
 42
1.0
 10
66.60314492510159
 20
228.6781589591538
 42
1.0
 10
66.56336122506708
 20
228.6388017370202
 42
1.0
 10
66.52357752503258
 20
228.5994445148865
 42
1.0
 10
66.49004026535307
 20
228.5526758181889
 42
1.0
 10
66.4655266810842
 20
228.5023685830352
 42
1.0
 10
66.44101309681533
 20
228.4520613478815
 42
1.0
 10
66.4248470730364
 20
228.3968280386127
 42
1.0
 10
66.41836732520534
 20
228.341242549584
 42
1.0
 10
66.41188757737427
 20
228.2856570605553
 42
1.0
 10
66.41491538604544
 20
228.2281862753487
 42
1.0
 10
66.42720001706633
 20
228.1735893746748
 42
1.0
 10
66.43948464808722
 20
228.1189924740009
 42
1.0
 10
66.46136492674903
 20
228.0657636079291
 42
1.0
 10
66.49102893766252
 20
228.018310682002
 42
1.0
 10
66.52069294857601
 20
227.970857756075
 42
1.0
 10
66.55895886178787
 20
227.9278719600062
 42
1.0
 10
66.60265786038754
 20
227.8929129662577
 42
1.0
 10
66.64635685898608
 20
227.8579539725102
 42
1.0
 10
66.69669421530793
 20
227.8300575688717
 42
1.0
 10
66.74950147099023
 20
227.8115338686565
 42
1.0
 10
66.80230872667252
 20
227.7930101684414
 42
1.0
 10
66.85904237102724
 20
227.7833482651267
 42
1.0
 10
66.91500426629857
 20
227.7833482651267
 42
1.0
 72
     1
 10
66.91500426629857
 20
227.7833482651267
 11
67.03134077219059
 21
227.7833482651267
 72
     1
 10
67.03134077219059
 20
227.7833482651267
 11
67.74153851151522
 21
225.1328542185456
 72
     2
 10
68.70746433681916
 20
225.3916732633837
 40
0.9999999989799991
 50
194.9999999999742
 51
270.0000000000244
 73
     1
 72
     1
 10
68.70746433681957
 20
224.3916732644037
 11
76.37712509738296
 21
224.3916732644037
 72
     1
 10
76.37712509738296
 20
224.3916732644037
 11
76.37712509738282
 21
224.8916732638938
 72
     1
 10
76.37712509738282
 20
224.8916732638938
 11
70.87712510299335
 21
228.8916732598138
 72
     1
 10
70.87712510299335
 20
228.8916732598138
 11
70.87712510299335
 21
242.3916732460437
 72
     1
 10
70.87712510299335
 20
242.3916732460437
 11
76.37712509738346
 21
242.3916732460437
 72
     1
 10
76.37712509738346
 20
242.3916732460437
 11
76.37712509738354
 21
242.8916732455337
 72
     1
 10
76.37712509738354
 20
242.8916732455337
 11
71.36834057640154
 21
246.3916732419637
 72
     1
 10
71.36834057640154
 20
246.3916732419637
 11
58.36834058966156
 21
246.3916732419637
 72
     1
 10
58.36834058966156
 20
246.3916732419637
 11
56.86834059119125
 21
244.8916732434938
 72
     1
 10
56.86834059119125
 20
244.8916732434938
 11
56.86834059119117
 21
238.3916732501237
 72
     1
 10
56.86834059119117
 20
238.3916732501237
 11
58.36834058966157
 21
236.8916732516537
 72
     1
 10
58.36834058966156
 20
236.8916732516537
 11
61.89068793020036
 21
236.8916732516537
 72
     2
 10
61.89082888622976
 20
237.3916732511437
 40
0.49999999949
 50
269.9838476292486
 51
349.9999999999827
 73
     1
 72
     1
 10
62.38323276223359
 20
237.3048491623986
 11
63.36834058456156
 21
242.8916732455337
 72
     1
 10
63.36834058456156
 20
242.8916732455337
 11
64.36834058354066
 21
242.8916732455337
 72
     1
 10
64.36834058354066
 20
242.8916732455337
 11
64.36834058354066
 21
237.8916732506337
 72
     2
 10
65.36834058252165
 20
237.8916732506337
 40
0.9999999989799991
 50
180.0
 51
248.6763137365117
 73
     1
 72
     2
 10
63.36834058456166
 20
232.7681978728797
 40
4.49999999541001
 50
291.3236862634998
 51
360.0000000000008
 73
     0
 97
        0
 75
     0
 76
     2
 52
0.0
 41
0.25
 77
     0
 78
     3
 53
45.00000209717174
 43
1.683798
 44
1.683798
 45
1.122531891871035
 46
3.367596086488466
 79
     2
 49
1.5875
 49
-3.175
 53
45.00000209717174
 43
3.9288625
 44
1.683798
 45
1.122531891871035
 46
3.367596086488466
 79
     2
 49
1.5875
 49
-3.175
 53
134.9999719140475
 43
0.0
 44
0.0
 45
-1.12253256539011
 46
-1.122531464876908
 79
     0
 98
        1
 10
0.0
 20
0.0
  0
DIMENSION
  5
288
330
1F
100
AcDbEntity
  8
0
  6
Continuous
 62
     7
370
    18
100
AcDbDimension
  2
_D
 10
201.8683404433
 20
256.391673242
 30
0.0
 11
129.3683405172
 21
256.391673242
 31
0.0
 70
   160
  1
%%c<>
 71
     2
 42
-1.0
  3
SLDDIMSTYLE0
100
AcDbAlignedDimension
 13
56.8683405912
 23
244.8916732435
 33
0.0
 14
201.8683404433
 24
244.8916732435
 34
0.0
 50
0.0
100
AcDbRotatedDimension
  0
DIMENSION
  5
294
330
1F
100
AcDbEntity
  8
0
  6
Continuous
 62
     7
370
    18
100
AcDbDimension
  2
_D_1
 10
76.3771250974
 20
214.3878616418
 30
0.0
 11
129.3683405172
 21
214.3878616418
 31
0.0
 70
   160
  1
%%c<>
 71
     2
 42
-1.0
  3
SLDDIMSTYLE1
100
AcDbAlignedDimension
 13
182.3595559371
 23
224.3916732644
 33
0.0
 14
76.3771250974
 24
224.3916732644
 34
0.0
100
AcDbRotatedDimension
  0
DIMENSION
  5
2A0
330
1F
100
AcDbEntity
  8
0
  6
Continuous
 62
     7
370
    18
100
AcDbDimension
  2
_D_2
 10
211.8683404433
 20
236.8916732517
 30
0.0
 11
211.8683404433
 21
241.6416732468
 31
0.0
 70
   160
  1
<>
 71
     2
 42
-1.0
  3
SLDDIMSTYLE2
100
AcDbAlignedDimension
 13
200.3683404448
 23
246.391673242
 33
0.0
 14
200.3683404448
 24
236.8916732517
 34
0.0
 50
90.0
100
AcDbRotatedDimension
  0
DIMENSION
  5
2AD
330
1F
100
AcDbEntity
  8
0
  6
Continuous
 62
     7
370
    18
100
AcDbDimension
  2
_D_3
 10
221.8683404433
 20
224.3916732644
 30
0.0
 11
221.8683404433
 21
235.3916732532
 31
0.0
 70
   160
  1
<>
 71
     2
 42
-1.0
  3
SLDDIMSTYLE0
100
AcDbAlignedDimension
 13
200.3683404448
 23
246.391673242
 33
0.0
 14
190.0292166977
 24
224.3916732644
 34
0.0
 50
90.0
100
AcDbRotatedDimension
  0
MTEXT
  5
2B7
330
1F
100
AcDbEntity
  8
0
  6
Continuous
 62
     7
370
     0
100
AcDbMText
 10
129.2676466283
 20
272.0764425391
 30
0.0
 40
5.0
 41
0.0
 71
     2
 72
     1
  1
A-A
  7
SLDTEXTSTYLE0
 73
     1
 44
1.0
  0
ENDSEC
  0
SECTION
  2
OBJECTS
  0
DICTIONARY
  5
C
330
0
100
AcDbDictionary
281
     1
  3
ACAD_GROUP
350
D
  3
ACAD_LAYOUT
350
1A
  3
ACAD_MLINESTYLE
350
17
  3
ACAD_PLOTSETTINGS
350
19
  3
ACAD_PLOTSTYLENAME
350
E
  3
ACAD_SCALELIST
350
47
  0
DICTIONARY
  5
D
102
{ACAD_REACTORS
330
C
102
}
330
C
100
AcDbDictionary
281
     1
  0
DICTIONARY
  5
1A
102
{ACAD_REACTORS
330
C
102
}
330
C
100
AcDbDictionary
281
     1
  3
Layout1
350
1E
  3
Layout2
350
26
  3
Model
350
22
  0
DICTIONARY
  5
17
102
{ACAD_REACTORS
330
C
102
}
330
C
100
AcDbDictionary
281
     1
  3
Standard
350
18
  0
DICTIONARY
  5
19
102
{ACAD_REACTORS
330
C
102
}
330
C
100
AcDbDictionary
281
     1
  0
ACDBDICTIONARYWDFLT
  5
E
102
{ACAD_REACTORS
330
C
102
}
330
C
100
AcDbDictionary
281
     1
  3
Normal
350
F
100
AcDbDictionaryWithDefault
340
F
  0
DICTIONARY
  5
47
102
{ACAD_REACTORS
330
C
102
}
330
C
100
AcDbDictionary
281
     1
  3
A0
350
48
  3
A1
350
49
  3
A2
350
4A
  3
A3
350
4B
  3
A4
350
4C
  3
A5
350
4D
  3
A6
350
4E
  3
A7
350
4F
  3
A8
350
50
  3
A9
350
51
  3
B0
350
52
  3
B1
350
53
  3
B2
350
54
  3
B3
350
55
  3
B4
350
56
  3
B5
350
57
  3
B6
350
58
  3
B7
350
59
  3
B8
350
5A
  3
B9
350
5B
  3
C0
350
5C
  3
C1
350
5D
  3
C2
350
5E
  3
C3
350
5F
  3
C4
350
60
  3
C5
350
61
  3
C6
350
62
  3
C7
350
63
  3
C8
350
64
  3
C9
350
65
  3
D0
350
66
  3
D1
350
67
  3
D2
350
68
  0
LAYOUT
  5
1E
102
{ACAD_REACTORS
330
1A
102
}
330
1A
100
AcDbPlotSettings
  1

  2
none_device
  4

  6

 40
0.0
 41
0.0
 42
0.0
 43
0.0
 44
0.0
 45
0.0
 46
0.0
 47
0.0
 48
0.0
 49
0.0
140
0.0
141
0.0
142
1.0
143
1.0
 70
   688
 72
     1
 73
     0
 74
     5
  7

 75
    16
147
1.0
148
0.0
149
0.0
100
AcDbLayout
  1
Layout1
 70
     1
 71
     1
 10
0.0
 20
0.0
 11
420.0
 21
297.0
 12
0.0
 22
0.0
 32
0.0
 14
1.0000000000E+20
 24
1.0000000000E+20
 34
1.0000000000E+20
 15
-1.0000000000E+20
 25
-1.0000000000E+20
 35
-1.0000000000E+20
146
0.0
 13
0.0
 23
0.0
 33
0.0
 16
1.0
 26
0.0
 36
0.0
 17
0.0
 27
1.0
 37
0.0
 76
     0
330
1B
  0
LAYOUT
  5
26
102
{ACAD_REACTORS
330
1A
102
}
330
1A
100
AcDbPlotSettings
  1

  2
none_device
  4

  6

 40
0.0
 41
0.0
 42
0.0
 43
0.0
 44
0.0
 45
0.0
 46
0.0
 47
0.0
 48
0.0
 49
0.0
140
0.0
141
0.0
142
1.0
143
1.0
 70
   688
 72
     1
 73
     0
 74
     5
  7

 75
    16
147
1.0
148
0.0
149
0.0
100
AcDbLayout
  1
Layout2
 70
     1
 71
     2
 10
0.0
 20
0.0
 11
0.0
 21
0.0
 12
0.0
 22
0.0
 32
0.0
 14
0.0
 24
0.0
 34
0.0
 15
0.0
 25
0.0
 35
0.0
146
0.0
 13
0.0
 23
0.0
 33
0.0
 16
1.0
 26
0.0
 36
0.0
 17
0.0
 27
1.0
 37
0.0
 76
     0
330
23
  0
LAYOUT
  5
22
102
{ACAD_REACTORS
330
1A
102
}
330
1A
100
AcDbPlotSettings
  1

  2
none_device
  4
Letter_(8.50_x_11.00_Inches)
  6

 40
6.35
 41
6.35
 42
6.35000508
 43
6.35000508
 44
215.9
 45
279.4
 46
0.0
 47
0.0
 48
0.0
 49
0.0
140
0.0
141
0.0
142
1.0
143
1.0
 70
  1712
 72
     1
 73
     0
 74
     0
  7

 75
     0
147
1.0
148
0.0
149
0.0
100
AcDbLayout
  1
Model
 70
     1
 71
     0
 10
0.0
 20
0.0
 11
420.0
 21
297.0
 12
0.0
 22
0.0
 32
0.0
 14
0.0
 24
0.0
 34
0.0
 15
420.0
 25
297.0
 35
0.0
146
0.0
 13
0.0
 23
0.0
 33
0.0
 16
1.0
 26
0.0
 36
0.0
 17
0.0
 27
1.0
 37
0.0
 76
     0
330
1F
331
29
  0
MLINESTYLE
  5
18
102
{ACAD_REACTORS
330
17
102
}
330
17
100
AcDbMlineStyle
  2
Standard
 70
     0
  3

 62
   256
 51
90.0
 52
90.0
 71
     2
 49
0.5
 62
   256
  6
BYLAYER
 49
-0.5
 62
   256
  6
BYLAYER
  0
ACDBPLACEHOLDER
  5
F
102
{ACAD_REACTORS
330
E
102
}
330
E
  0
SCALE
  5
48
102
{ACAD_REACTORS
330
47
102
}
330
47
100
AcDbScale
 70
     0
300
1:1
140
1.0
141
1.0
290
     1
  0
SCALE
  5
49
102
{ACAD_REACTORS
330
47
102
}
330
47
100
AcDbScale
 70
     0
300
1:2
140
1.0
141
2.0
290
     0
  0
SCALE
  5
4A
102
{ACAD_REACTORS
330
47
102
}
330
47
100
AcDbScale
 70
     0
300
1:4
140
1.0
141
4.0
290
     0
  0
SCALE
  5
4B
102
{ACAD_REACTORS
330
47
102
}
330
47
100
AcDbScale
 70
     0
300
1:5
140
1.0
141
5.0
290
     0
  0
SCALE
  5
4C
102
{ACAD_REACTORS
330
47
102
}
330
47
100
AcDbScale
 70
     0
300
1:8
140
1.0
141
8.0
290
     0
  0
SCALE
  5
4D
102
{ACAD_REACTORS
330
47
102
}
330
47
100
AcDbScale
 70
     0
300
1:10
140
1.0
141
10.0
290
     0
  0
SCALE
  5
4E
102
{ACAD_REACTORS
330
47
102
}
330
47
100
AcDbScale
 70
     0
300
1:16
140
1.0
141
16.0
290
     0
  0
SCALE
  5
4F
102
{ACAD_REACTORS
330
47
102
}
330
47
100
AcDbScale
 70
     0
300
1:20
140
1.0
141
20.0
290
     0
  0
SCALE
  5
50
102
{ACAD_REACTORS
330
47
102
}
330
47
100
AcDbScale
 70
     0
300
1:30
140
1.0
141
30.0
290
     0
  0
SCALE
  5
51
102
{ACAD_REACTORS
330
47
102
}
330
47
100
AcDbScale
 70
     0
300
1:40
140
1.0
141
40.0
290
     0
  0
SCALE
  5
52
102
{ACAD_REACTORS
330
47
102
}
330
47
100
AcDbScale
 70
     0
300
1:50
140
1.0
141
50.0
290
     0
  0
SCALE
  5
53
102
{ACAD_REACTORS
330
47
102
}
330
47
100
AcDbScale
 70
     0
300
1:100
140
1.0
141
100.0
290
     0
  0
SCALE
  5
54
102
{ACAD_REACTORS
330
47
102
}
330
47
100
AcDbScale
 70
     0
300
2:1
140
2.0
141
1.0
290
     0
  0
SCALE
  5
55
102
{ACAD_REACTORS
330
47
102
}
330
47
100
AcDbScale
 70
     0
300
4:1
140
4.0
141
1.0
290
     0
  0
SCALE
  5
56
102
{ACAD_REACTORS
330
47
102
}
330
47
100
AcDbScale
 70
     0
300
8:1
140
8.0
141
1.0
290
     0
  0
SCALE
  5
57
102
{ACAD_REACTORS
330
47
102
}
330
47
100
AcDbScale
 70
     0
300
10:1
140
10.0
141
1.0
290
     0
  0
SCALE
  5
58
102
{ACAD_REACTORS
330
47
102
}
330
47
100
AcDbScale
 70
     0
300
100:1
140
100.0
141
1.0
290
     0
  0
SCALE
  5
59
102
{ACAD_REACTORS
330
47
102
}
330
47
100
AcDbScale
 70
     0
300
1/128" = 1'-0"
140
0.0078125
141
12.0
290
     0
  0
SCALE
  5
5A
102
{ACAD_REACTORS
330
47
102
}
330
47
100
AcDbScale
 70
     0
300
1/64" = 1'-0"
140
0.015625
141
12.0
290
     0
  0
SCALE
  5
5B
102
{ACAD_REACTORS
330
47
102
}
330
47
100
AcDbScale
 70
     0
300
1/32" = 1'-0"
140
0.03125
141
12.0
290
     0
  0
SCALE
  5
5C
102
{ACAD_REACTORS
330
47
102
}
330
47
100
AcDbScale
 70
     0
300
1/16" = 1'-0"
140
0.0625
141
12.0
290
     0
  0
SCALE
  5
5D
102
{ACAD_REACTORS
330
47
102
}
330
47
100
AcDbScale
 70
     0
300
3/32" = 1'-0"
140
0.09375
141
12.0
290
     0
  0
SCALE
  5
5E
102
{ACAD_REACTORS
330
47
102
}
330
47
100
AcDbScale
 70
     0
300
1/8" = 1'-0"
140
0.125
141
12.0
290
     0
  0
SCALE
  5
5F
102
{ACAD_REACTORS
330
47
102
}
330
47
100
AcDbScale
 70
     0
300
3/16" = 1'-0"
140
0.1875
141
12.0
290
     0
  0
SCALE
  5
60
102
{ACAD_REACTORS
330
47
102
}
330
47
100
AcDbScale
 70
     0
300
1/4" = 1'-0"
140
0.25
141
12.0
290
     0
  0
SCALE
  5
61
102
{ACAD_REACTORS
330
47
102
}
330
47
100
AcDbScale
 70
     0
300
3/8" = 1'-0"
140
0.375
141
12.0
290
     0
  0
SCALE
  5
62
102
{ACAD_REACTORS
330
47
102
}
330
47
100
AcDbScale
 70
     0
300
1/2" = 1'-0"
140
0.5
141
12.0
290
     0
  0
SCALE
  5
63
102
{ACAD_REACTORS
330
47
102
}
330
47
100
AcDbScale
 70
     0
300
3/4" = 1'-0"
140
0.75
141
12.0
290
     0
  0
SCALE
  5
64
102
{ACAD_REACTORS
330
47
102
}
330
47
100
AcDbScale
 70
     0
300
1" = 1'-0"
140
1.0
141
12.0
290
     0
  0
SCALE
  5
65
102
{ACAD_REACTORS
330
47
102
}
330
47
100
AcDbScale
 70
     0
300
1-1/2" = 1'-0"
140
1.5
141
12.0
290
     0
  0
SCALE
  5
66
102
{ACAD_REACTORS
330
47
102
}
330
47
100
AcDbScale
 70
     0
300
3" = 1'-0"
140
3.0
141
12.0
290
     0
  0
SCALE
  5
67
102
{ACAD_REACTORS
330
47
102
}
330
47
100
AcDbScale
 70
     0
300
6" = 1'-0"
140
6.0
141
12.0
290
     0
  0
SCALE
  5
68
102
{ACAD_REACTORS
330
47
102
}
330
47
100
AcDbScale
 70
     0
300
1'-0" = 1'-0"
140
12.0
141
12.0
290
     0
  0
ENDSEC
  0
EOF
